Sesame Street S48E09

Posted By: Tavaz
720p (HD) / WEB-DL IMDb
Sesame Street S48E09

Sesame Street S48E09
WEB-DL | MKV | 1280x720 | English | H264 @ 3719 kbps | E-AC-3 @ 224 kbps | 26 min 14 s | 740 MiB
Subtitles: English
Genre: Animation, Comedy, Family

Sesame Street is a long-running American children's television series created by Joan Ganz Cooney and Lloyd Morrisett. The program is known for its educational content, and creativity communicated through the use of Jim Henson's Muppets, animation, short films, humor, and cultural references. The series premiered on stations on November 10, 1969 to positive reviews, some controversy, and high ratings.

c0c79e9d6e9947c3b8401e5f410be4a2.mkv (740.4 MB)



General
Unique ID : 209104639420952827736042279666700938846 (0x9D5016B23B7FBCFB916C034A894E6E5E)
Complete name : ./c0c79e9d6e9947c3b8401e5f410be4a2.mkv
Format : Matroska
Format version : Version 4 / Version 2
File size : 740 MiB
Duration : 26 min 14 s
Overall bit rate mode : Variable
Overall bit rate : 3 946 kb/s
Encoded date : UTC 2018-01-13 18:20:22
Writing application : mkvmerge v13.0.0 ('The Juggler') 64bit
Writing library : libebml v1.3.4 + libmatroska v1.4.5

Video
ID : 1
Format : AVC
Format/Info : Advanced Video Codec
Format profile : High@L3.1
Format settings : CABAC / 5 Ref Frames
Format settings, CABAC : Yes
Format settings, RefFrames : 5 frames
Codec ID : V_MPEG4/ISO/AVC
Duration : 26 min 14 s
Bit rate mode : Variable
Bit rate : 3 719 kb/s
Maximum bit rate : 4 500 kb/s
Width : 1 280 pixels
Height : 720 pixels
Display aspect ratio : 16:9
Frame rate mode : Constant
Frame rate : 29.970 (30000/1001) FPS
Color space : YUV
Chroma subsampling : 4:2:0
Bit depth : 8 bits
Scan type : Progressive
Bits/(Pixel*Frame) : 0.135
Stream size : 698 MiB (94%)
Default : Yes
Forced : No
Color range : Limited
Color primaries : BT.709
Transfer characteristics : BT.709
Matrix coefficients : BT.709

Audio
ID : 2
Format : E-AC-3
Format/Info : Enhanced Audio Coding 3
Format settings, Endianness : Big
Codec ID : A_EAC3
Duration : 26 min 14 s
Bit rate mode : Constant
Bit rate : 224 kb/s
Channel(s) : 2 channels
Channel positions : Front: L R
Sampling rate : 48.0 kHz
Frame rate : 187.500 FPS (256 SPF)
Compression mode : Lossy
Stream size : 42.0 MiB (6%)
Language : English
Service kind : Complete Main
Default : Yes
Forced : No

Text #1
ID : 3
Format : UTF-8
Codec ID : S_TEXT/UTF8
Codec ID/Info : UTF-8 Plain Text
Duration : 25 min 54 s
Bit rate : 93 b/s
Count of elements : 598
Stream size : 17.8 KiB (0%)
Language : English
Default : No
Forced : No

Text #2
ID : 4
Format : UTF-8
Codec ID : S_TEXT/UTF8
Codec ID/Info : UTF-8 Plain Text
Duration : 25 min 54 s
Bit rate : 97 b/s
Count of elements : 630
Stream size : 18.5 KiB (0%)
Title : SDH
Language : English
Default : No
Forced : No





Sesame Street S48E09


Sesame Street S48E09


Sesame Street S48E09


Sesame Street S48E09


Sesame Street S48E09

All episodes