Shadowhunters S03E10

Posted By: Tavaz
SD / WEB-DL IMDb
Shadowhunters S03E10

Shadowhunters S03E10
WEB-DL | MKV | 720x404 | Italian | H264 @ 767 kbps | AAC @ 112 kbps | 41 min 56 s | 265 MiB
Subtitles: Italian
Genre: Dramma

Clary Fray è una ragazza perfettamente normale: studentessa alla Brooklyn Academy of Art, vive con la madre Jocelyn nel loro umile appartamento di New York e passa le sue giornate tra l'arte e il migliore amico Simon Lewis. Il giorno del suo diciottesimo compleanno, però, Clary passa la serata al Pandemonium Club, dove assiste a un omicidio che nessun altro - eccetto lei - riesce a vedere. Quando torna a casa, viene attaccata da un demone, ma il ragazzo che aveva visto poco prima al Club, Jace Wayland, la salva. Jace è uno Shadowhunter, metà umano e metà angelo che protegge i Mondani (persone appartenenti al mondo degli umani) dai demoni, e, quando si scopre che anche Clary è una di loro, Jace, insieme ai compagni cacciatori Isabelle e Alec, la aiuta a scoprire se stessa. Clary deve comprendere il prima possibile il potenziale che c'è in lei per poter sconfiggere Valentine Morgenstern, l'uomo più ricercato nel mondo degli Shadowhunter e dei Nascosti, che fino a poco tempo prima si credeva morto ma che ora vuole ottenere la Coppa Mortale, uno strumento che gli permetterà di creare nuovi Shadowhunters che lo aiuteranno a sterminare i Nascosti.

Shadowhunters.3x10.Erchomai.ITA.WEBMux.x264-NovaRip.mkv (264.6 MB)



General
Unique ID : 274339914727768672776086983747263187920 (0xCE63F21786C511BE25BF30CDFFFACBD0)
Complete name : ./Shadowhunters.3x10.Erchomai.ITA.WEBMux.x264-NovaRip.mkv
Format : Matroska
Format version : Version 2
File size : 265 MiB
Duration : 41 min 56 s
Overall bit rate : 882 kb/s
Encoded date : UTC 2018-05-17 09:30:06
Writing application : mkvmerge v8.5.2 ('Crosses') 64bit
Writing library : libebml v1.3.3 + libmatroska v1.4.4

Video
ID : 1
Format : AVC
Format/Info : Advanced Video Codec
Format profile : High@L3.1
Format settings : CABAC / 6 Ref Frames
Format settings, CABAC : Yes
Format settings, RefFrames : 6 frames
Codec ID : V_MPEG4/ISO/AVC
Duration : 41 min 56 s
Bit rate : 768 kb/s
Width : 720 pixels
Height : 404 pixels
Display aspect ratio : 16:9
Frame rate mode : Constant
Frame rate : 23.976 (24000/1001) FPS
Color space : YUV
Chroma subsampling : 4:2:0
Bit depth : 8 bits
Scan type : Progressive
Bits/(Pixel*Frame) : 0.110
Stream size : 230 MiB (87%)
Writing library : x264 core 155 r2893 b00bcaf
Encoding settings : cabac=1 / ref=6 / deblock=1:-2:-2 / analyse=0x3:0x133 / me=umh / subme=7 / psy=1 / psy_rd=1.00:0.00 / mixed_ref=1 / me_range=16 / chroma_me=1 / trellis=2 / 8x8dct=1 / cqm=0 / deadzone=21,11 / fast_pskip=0 / chroma_qp_offset=-2 / threads=6 / lookahead_threads=1 / sliced_threads=0 / nr=0 / decimate=1 / interlaced=0 / bluray_compat=0 / constrained_intra=0 / bframes=5 / b_pyramid=2 / b_adapt=2 / b_bias=0 / direct=3 / weightb=1 / open_gop=0 / weightp=2 / keyint=250 / keyint_min=23 / scenecut=40 / intra_refresh=0 / rc_lookahead=40 / rc=crf / mbtree=1 / crf=18.0 / qcomp=0.60 / qpmin=0 / qpmax=69 / qpstep=4 / ip_ratio=1.40 / aq=1:1.00
Language : English
Default : Yes
Forced : Yes

Audio
ID : 2
Format : AAC
Format/Info : Advanced Audio Codec
Format profile : LC
Codec ID : A_AAC-2
Duration : 41 min 56 s
Bit rate : 112 kb/s
Channel(s) : 2 channels
Channel positions : Front: L R
Sampling rate : 48.0 kHz
Frame rate : 46.875 FPS (1024 SPF)
Compression mode : Lossy
Delay relative to video : 9 ms
Stream size : 33.6 MiB (13%)
Title : ITA
Language : Italian
Default : Yes
Forced : Yes

Text
ID : 3
Format : UTF-8
Codec ID : S_TEXT/UTF8
Codec ID/Info : UTF-8 Plain Text
Duration : 41 min 51 s
Bit rate : 0 b/s
Count of elements : 3
Stream size : 86.0 Bytes (0%)
Title : ITA - Forced
Language : Italian
Default : Yes
Forced : Yes





Shadowhunters S03E10


Shadowhunters S03E10


Shadowhunters S03E10


Shadowhunters S03E10


Shadowhunters S03E10

All episodes