Shadowhunters S03E10

Posted By: Tavaz
1080p (FullHD) / WEB-DL IMDb
Shadowhunters S03E10

Shadowhunters S03E10
WEB-DL | MKV | 1920x1080 | Italian / English | H264 @ 5281 kbps | AC-3 @ 384 kbps | 41 min 56 s | 1.77 GiB
Subtitles: English, Italian
Genre: Drama

When Clary Fray's mother has disappeared, Clary joins a band of Shadowhunters; demon killing hunters, and gets caught up in a plan to save the world.

Shadowhunters.3x10.Erchomai.ITA-ENG.1080p.WEBMux.DD5.1.x264-NovaRip.mkv (1.8 GB)



General
Unique ID : 53494780942273603520025954826773139329 (0x283EB855197BE90CEBA68EA3CD050F81)
Complete name : ./Shadowhunters.3x10.Erchomai.ITA-ENG.1080p.WEBMux.DD5.1.x264-NovaRip.mkv
Format : Matroska
Format version : Version 2
File size : 1.77 GiB
Duration : 41 min 56 s
Overall bit rate : 6 053 kb/s
Encoded date : UTC 2018-05-17 09:29:06
Writing application : mkvmerge v8.5.2 ('Crosses') 64bit
Writing library : libebml v1.3.3 + libmatroska v1.4.4

Video
ID : 1
Format : AVC
Format/Info : Advanced Video Codec
Format profile : High@L4.1
Format settings : CABAC / 4 Ref Frames
Format settings, CABAC : Yes
Format settings, RefFrames : 4 frames
Codec ID : V_MPEG4/ISO/AVC
Duration : 41 min 56 s
Bit rate : 5 281 kb/s
Width : 1 920 pixels
Height : 1 080 pixels
Display aspect ratio : 16:9
Frame rate mode : Constant
Frame rate : 23.976 (24000/1001) FPS
Color space : YUV
Chroma subsampling : 4:2:0
Bit depth : 8 bits
Scan type : Progressive
Bits/(Pixel*Frame) : 0.106
Stream size : 1.55 GiB (87%)
Writing library : x264 core 155 r2893 b00bcaf
Encoding settings : cabac=1 / ref=4 / deblock=1:-2:-2 / analyse=0x3:0x133 / me=umh / subme=7 / psy=1 / psy_rd=1.00:0.00 / mixed_ref=1 / me_range=16 / chroma_me=1 / trellis=2 / 8x8dct=1 / cqm=0 / deadzone=21,11 / fast_pskip=0 / chroma_qp_offset=-2 / threads=6 / lookahead_threads=1 / sliced_threads=0 / nr=0 / decimate=1 / interlaced=0 / bluray_compat=0 / constrained_intra=0 / bframes=5 / b_pyramid=2 / b_adapt=2 / b_bias=0 / direct=3 / weightb=1 / open_gop=0 / weightp=2 / keyint=250 / keyint_min=23 / scenecut=40 / intra_refresh=0 / rc_lookahead=40 / rc=2pass / mbtree=1 / bitrate=5281 / ratetol=1.0 / qcomp=0.60 / qpmin=0 / qpmax=69 / qpstep=4 / cplxblur=20.0 / qblur=0.5 / ip_ratio=1.40 / aq=1:1.00
Language : English
Default : Yes
Forced : Yes

Audio #1
ID : 2
Format : AC-3
Format/Info : Audio Coding 3
Format settings, Endianness : Big
Codec ID : A_AC3
Duration : 41 min 56 s
Bit rate mode : Constant
Bit rate : 384 kb/s
Channel(s) : 6 channels
Channel positions : Front: L C R, Side: L R, LFE
Sampling rate : 48.0 kHz
Frame rate : 31.250 FPS (1536 SPF)
Bit depth : 16 bits
Compression mode : Lossy
Stream size : 115 MiB (6%)
Title : ITA
Language : Italian
Service kind : Complete Main
Default : Yes
Forced : Yes

Audio #2
ID : 3
Format : AC-3
Format/Info : Audio Coding 3
Format settings, Endianness : Big
Codec ID : A_AC3
Duration : 41 min 56 s
Bit rate mode : Constant
Bit rate : 384 kb/s
Channel(s) : 6 channels
Channel positions : Front: L C R, Side: L R, LFE
Sampling rate : 48.0 kHz
Frame rate : 31.250 FPS (1536 SPF)
Bit depth : 16 bits
Compression mode : Lossy
Stream size : 115 MiB (6%)
Title : ENG
Language : English
Service kind : Complete Main
Default : No
Forced : No

Text #1
ID : 4
Format : UTF-8
Codec ID : S_TEXT/UTF8
Codec ID/Info : UTF-8 Plain Text
Duration : 41 min 51 s
Bit rate : 0 b/s
Count of elements : 3
Stream size : 86.0 Bytes (0%)
Title : ITA - Forced
Language : Italian
Default : Yes
Forced : Yes

Text #2
ID : 5
Format : UTF-8
Codec ID : S_TEXT/UTF8
Codec ID/Info : UTF-8 Plain Text
Duration : 41 min 51 s
Bit rate : 45 b/s
Count of elements : 446
Stream size : 13.9 KiB (0%)
Title : ITA
Language : Italian
Default : No
Forced : No

Text #3
ID : 6
Format : UTF-8
Codec ID : S_TEXT/UTF8
Codec ID/Info : UTF-8 Plain Text
Duration : 41 min 19 s
Bit rate : 57 b/s
Count of elements : 532
Stream size : 17.5 KiB (0%)
Title : ENG
Language : English
Default : No
Forced : No





Shadowhunters S03E10


Shadowhunters S03E10


Shadowhunters S03E10


Shadowhunters S03E10


Shadowhunters S03E10

All episodes