Steven Universe S05E06

Posted By: Tavaz
720p (HD) / WEB-DL IMDb
Steven Universe S05E06

Steven Universe S05E06
WEB-DL | MKV | 1280x720 | English | H264 @ 3740 kbps | AAC @ 157 kbps | 11 min 8 s | 311 MiB
Subtitles: English
Genre: Animation, Comedy

A young boy takes his mother's place in a group of gemstone-based beings, and must learn to control his powers.

Steven.Universe.S05E06.Gemcation.720p.WEB-DL.AAC2.0.H.264-iT00NZ.mkv (310.8 MB)



General
Unique ID : 240860098725933473378307528292353899296 (0xB533F7B833745F038F167A050C6AFB20)
Complete name : ./Steven.Universe.S05E06.Gemcation.720p.WEB-DL.AAC2.0.H.264-iT00NZ.mkv
Format : Matroska
Format version : Version 4 / Version 2
File size : 311 MiB
Duration : 11 min 8 s
Overall bit rate : 3 900 kb/s
Encoded date : UTC 2017-11-10 09:00:58
Writing application : mkvmerge v11.0.0 ('Alive') 64bit
Writing library : libebml v1.3.4 + libmatroska v1.4.5

Video
ID : 1
Format : AVC
Format/Info : Advanced Video Codec
Format profile : High@L3.1
Format settings : 2 Ref Frames
Format settings, CABAC : No
Format settings, RefFrames : 2 frames
Codec ID : V_MPEG4/ISO/AVC
Duration : 11 min 8 s
Bit rate : 3 740 kb/s
Width : 1 280 pixels
Height : 720 pixels
Display aspect ratio : 16:9
Frame rate mode : Constant
Frame rate : 23.976 (24000/1001) FPS
Color space : YUV
Chroma subsampling : 4:2:0
Bit depth : 8 bits
Scan type : Progressive
Bits/(Pixel*Frame) : 0.169
Stream size : 298 MiB (96%)
Language : English
Default : Yes
Forced : No
Color range : Limited
Color primaries : BT.709
Transfer characteristics : BT.709
Matrix coefficients : BT.709

Audio
ID : 2
Format : AAC
Format/Info : Advanced Audio Codec
Format profile : LC
Codec ID : A_AAC-2
Duration : 11 min 8 s
Bit rate : 157 kb/s
Channel(s) : 2 channels
Channel positions : Front: L R
Sampling rate : 48.0 kHz
Frame rate : 46.875 FPS (1024 SPF)
Compression mode : Lossy
Delay relative to video : 3 ms
Stream size : 12.5 MiB (4%)
Language : English
Default : Yes
Forced : No

Text
ID : 3
Format : UTF-8
Codec ID : S_TEXT/UTF8
Codec ID/Info : UTF-8 Plain Text
Duration : 10 min 50 s
Bit rate : 90 b/s
Count of elements : 266
Stream size : 7.17 KiB (0%)
Language : English
Default : No
Forced : No





Steven Universe S05E06


Steven Universe S05E06


Steven Universe S05E06


Steven Universe S05E06


Steven Universe S05E06

All episodes