Steven Universe S05E16

Posted By: Tavaz
1080p (FullHD) / WEBRip IMDb
Steven Universe S05E16

Steven Universe S05E16
WEBRip | MKV | 1920x1080 | English | H264 @ 4500 kbps | AAC @ 125 kbps | 11 min 26 s | 365 MiB
Subtitles: English
Genre: Animation, Comedy

A young boy takes his mother's place in a group of gemstone-based beings, and must learn to control his powers.

Steven.Universe.S05E16.Letters.to.Lars.1080p.CN.WEBRip.AAC2.0.x264-SHDW.mkv (365.3 MB)



General
Unique ID : 92750239003901237435627645101761185854 (0x45C70BD80056BEB7A45AEB25AD89483E)
Complete name : ./Steven.Universe.S05E16.Letters.to.Lars.1080p.CN.WEBRip.AAC2.0.x264-SHDW.mkv
Format : Matroska
Format version : Version 4 / Version 2
File size : 365 MiB
Duration : 11 min 26 s
Overall bit rate : 4 464 kb/s
Movie name : Steven Universe S05E16 - Letters to Lars [SHDW, Mark SHaDoW]
Encoded date : UTC 2018-03-26 05:45:53
Writing application : mkvmerge v21.0.0 ('Tardigrades Will Inherit The Earth') 32-bit
Writing library : libebml v1.3.5 + libmatroska v1.4.8

Video
ID : 1
Format : AVC
Format/Info : Advanced Video Codec
Format profile : High@L4
Format settings : CABAC / 4 Ref Frames
Format settings, CABAC : Yes
Format settings, RefFrames : 4 frames
Codec ID : V_MPEG4/ISO/AVC
Duration : 11 min 26 s
Bit rate : 4 500 kb/s
Width : 1 920 pixels
Height : 1 080 pixels
Display aspect ratio : 16:9
Frame rate mode : Constant
Frame rate : 29.970 (30000/1001) FPS
Color space : YUV
Chroma subsampling : 4:2:0
Bit depth : 8 bits
Scan type : Progressive
Bits/(Pixel*Frame) : 0.072
Stream size : 355 MiB (97%)
Title : English
Writing library : x264 core 148 r236 a01e339
Encoding settings : cabac=1 / ref=1 / deblock=1:0:0 / analyse=0x3:0x113 / me=hex / subme=2 / psy=1 / psy_rd=1.00:0.00 / mixed_ref=0 / me_range=16 / chroma_me=1 / trellis=0 / 8x8dct=1 / cqm=0 / deadzone=21,11 / fast_pskip=1 / chroma_qp_offset=0 / threads=34 / lookahead_threads=8 / sliced_threads=0 / nr=0 / decimate=1 / interlaced=0 / bluray_compat=0 / constrained_intra=0 / bframes=2 / b_pyramid=2 / b_adapt=0 / b_bias=0 / direct=1 / weightb=1 / open_gop=0 / weightp=1 / keyint=60 / keyint_min=6 / scenecut=0 / intra_refresh=0 / rc_lookahead=10 / rc=2pass / mbtree=1 / bitrate=4500 / ratetol=1.0 / qcomp=0.60 / qpmin=0 / qpmax=69 / qpstep=4 / cplxblur=20.0 / qblur=0.5 / vbv_maxrate=4500 / vbv_bufsize=4500 / nal_hrd=none / filler=0 / ip_ratio=1.40 / aq=1:1.00
Language : English
Default : Yes
Forced : No

Audio
ID : 2
Format : AAC
Format/Info : Advanced Audio Codec
Format profile : LC
Codec ID : A_AAC-2
Duration : 11 min 26 s
Bit rate : 126 kb/s
Channel(s) : 2 channels
Channel positions : Front: L R
Sampling rate : 44.1 kHz
Frame rate : 43.066 FPS (1024 SPF)
Compression mode : Lossy
Stream size : 10.3 MiB (3%)
Title : English
Language : English
Default : Yes
Forced : No

Text
ID : 3
Format : UTF-8
Codec ID : S_TEXT/UTF8
Codec ID/Info : UTF-8 Plain Text
Duration : 11 min 26 s
Bit rate : 144 b/s
Count of elements : 268
Stream size : 12.1 KiB (0%)
Title : English Closed Captions
Language : English
Default : No
Forced : No





Steven Universe S05E16


Steven Universe S05E16


Steven Universe S05E16


Steven Universe S05E16


Steven Universe S05E16

All episodes