Steven Universe S05E16

Posted By: Tavaz
720p (HD) / WEB-DL IMDb
Steven Universe S05E16

Steven Universe S05E16
WEB-DL | MKV | 1280x720 | English | H264 @ 2400 kbps | AAC @ 150 kbps | 11 min 8 s | 204 MiB
Subtitles: English
Genre: Animazione, Commedia

A young boy takes his mother's place in a group of gemstone-based beings, and must learn to control his powers.

Steven.Universe.S05E16.Letters.to.Lars.720p.iT.WEB-DL.AAC2.0.H.264-iT00NZ.mkv (203.6 MB)



General
Unique ID : 227756732862971835323305218389556645824 (0xAB5859E74DAD54CF9E6EF0814A7CCFC0)
Complete name : ./Steven.Universe.S05E16.Letters.to.Lars.720p.iT.WEB-DL.AAC2.0.H.264-iT00NZ.mkv
Format : Matroska
Format version : Version 4 / Version 2
File size : 204 MiB
Duration : 11 min 8 s
Overall bit rate : 2 554 kb/s
Encoded date : UTC 2018-03-26 19:04:05
Writing application : mkvmerge v18.0.0 ('Apricity') 64-bit
Writing library : libebml v1.3.5 + libmatroska v1.4.8

Video
ID : 1
Format : AVC
Format/Info : Advanced Video Codec
Format profile : High@L3.1
Format settings : 2 Ref Frames
Format settings, CABAC : No
Format settings, RefFrames : 2 frames
Codec ID : V_MPEG4/ISO/AVC
Duration : 11 min 8 s
Bit rate : 2 400 kb/s
Width : 1 280 pixels
Height : 720 pixels
Display aspect ratio : 16:9
Frame rate mode : Constant
Frame rate : 23.976 (24000/1001) FPS
Color space : YUV
Chroma subsampling : 4:2:0
Bit depth : 8 bits
Scan type : Progressive
Bits/(Pixel*Frame) : 0.109
Stream size : 191 MiB (94%)
Language : English
Default : Yes
Forced : No
Color range : Limited
Color primaries : BT.709
Transfer characteristics : BT.709
Matrix coefficients : BT.709

Audio
ID : 2
Format : AAC
Format/Info : Advanced Audio Codec
Format profile : LC
Codec ID : A_AAC-2
Duration : 11 min 8 s
Bit rate : 151 kb/s
Channel(s) : 2 channels
Channel positions : Front: L R
Sampling rate : 48.0 kHz
Frame rate : 46.875 FPS (1024 SPF)
Compression mode : Lossy
Delay relative to video : 20 ms
Stream size : 12.0 MiB (6%)
Language : English
Default : Yes
Forced : No

Text
ID : 3
Format : UTF-8
Codec ID : S_TEXT/UTF8
Codec ID/Info : UTF-8 Plain Text
Duration : 11 min 4 s
Bit rate : 109 b/s
Count of elements : 256
Stream size : 8.85 KiB (0%)
Language : English
Default : No
Forced : No





Steven Universe S05E16


Steven Universe S05E16


Steven Universe S05E16


Steven Universe S05E16


Steven Universe S05E16

All episodes