Steven Universe S05E16

Posted By: Tavaz
1080p (FullHD) / WEB-DL IMDb
Steven Universe S05E16

Steven Universe S05E16
WEB-DL | MKV | 1920x1080 | English | H264 @ 5043 kbps | AAC @ 150 kbps | 11 min 8 s | 414 MiB
Subtitles: English
Genre: Animazione, Commedia

A young boy takes his mother's place in a group of gemstone-based beings, and must learn to control his powers.

9154e1d6e7fe46a8b0d35602d0672d9c.mkv (414.4 MB)



General
Complete name : ./9154e1d6e7fe46a8b0d35602d0672d9c.mkv
Format : Matroska
Format version : Version 4 / Version 2
File size : 414 MiB
Duration : 11 min 8 s
Overall bit rate : 5 197 kb/s
Encoded date : UTC 2018-03-26 18:55:57
Writing application : mkvmerge v18.0.0 ('Apricity') 64-bit
Writing library : libebml v1.3.5 + libmatroska v1.4.8

Video
ID : 1
Format : AVC
Format/Info : Advanced Video Codec
Format profile : High@L4
Format settings : CABAC / 4 Ref Frames
Format settings, CABAC : Yes
Format settings, RefFrames : 4 frames
Codec ID : V_MPEG4/ISO/AVC
Duration : 11 min 8 s
Bit rate : 5 044 kb/s
Width : 1 920 pixels
Height : 1 080 pixels
Display aspect ratio : 16:9
Frame rate mode : Constant
Frame rate : 23.976 (24000/1001) FPS
Color space : YUV
Chroma subsampling : 4:2:0
Bit depth : 8 bits
Scan type : Progressive
Bits/(Pixel*Frame) : 0.101
Stream size : 402 MiB (97%)
Language : English
Default : Yes
Forced : No
Color range : Limited
Color primaries : BT.709
Transfer characteristics : BT.709
Matrix coefficients : BT.709

Audio
ID : 2
Format : AAC
Format/Info : Advanced Audio Codec
Format profile : LC
Codec ID : A_AAC-2
Duration : 11 min 8 s
Bit rate : 151 kb/s
Channel(s) : 2 channels
Channel positions : Front: L R
Sampling rate : 48.0 kHz
Frame rate : 46.875 FPS (1024 SPF)
Compression mode : Lossy
Delay relative to video : 20 ms
Stream size : 12.0 MiB (3%)
Language : English
Default : Yes
Forced : No

Text
ID : 3
Format : UTF-8
Codec ID : S_TEXT/UTF8
Codec ID/Info : UTF-8 Plain Text
Duration : 11 min 4 s
Bit rate : 109 b/s
Count of elements : 256
Stream size : 8.85 KiB (0%)
Language : English
Default : No
Forced : No





Steven Universe S05E16


Steven Universe S05E16


Steven Universe S05E16


Steven Universe S05E16


Steven Universe S05E16

All episodes