Stretch Armstrong & the Flex Fighters S01E02

Posted By: Tavaz
720p (HD) / WEBRip IMDb
Stretch Armstrong & the Flex Fighters S01E02

Stretch Armstrong & the Flex Fighters S01E02
WEBRip | MKV | 1280x720 | English | H264 @ 2354 kbps | AC-3 @ 384 kbps | 22 min 52 s | 457 MiB
Subtitles: German, Italian, Spanish, French, English
Genre: Animation

When overscheduled teenager Jake Armstrong and his two best friends are accidentally exposed to an experimental chemical, they become Stretch Armstrong and the Flex Fighters, a team of unlikely superheroes who expand beyond the confines of their lives and embark on a series of adventures.

stretch.armstrong.and.the.flex.fighters.s01e02.720p.web.x264-convoy.mkv (457.2 MB)



General
Unique ID : 226532877145449244158395644717075311101 (0xAA6CA5286FBC7818BE5CB7EBABC0A9FD)
Complete name : ./stretch.armstrong.and.the.flex.fighters.s01e02.720p.web.x264-convoy.mkv
Format : Matroska
Format version : Version 4 / Version 2
File size : 457 MiB
Duration : 22 min 52 s
Overall bit rate mode : Variable
Overall bit rate : 2 794 kb/s
Encoded date : UTC 2017-11-17 08:12:55 / UTC 2017-10-09 14:37:10
Writing application : mkvmerge v11.0.0 ('Alive') 64bit
Writing library : libebml v1.3.4 + libmatroska v1.4.5 / Lavf58.0.0

Video
ID : 1
Format : AVC
Format/Info : Advanced Video Codec
Format profile : Main@L3.1
Format settings : CABAC / 3 Ref Frames
Format settings, CABAC : Yes
Format settings, RefFrames : 3 frames
Codec ID : V_MPEG4/ISO/AVC
Duration : 22 min 52 s
Bit rate mode : Variable
Bit rate : 2 355 kb/s
Nominal bit rate : 2 490 kb/s
Maximum bit rate : 3 735 kb/s
Width : 1 280 pixels
Height : 720 pixels
Display aspect ratio : 16:9
Frame rate mode : Constant
Frame rate : 23.976 (24000/1001) FPS
Color space : YUV
Chroma subsampling : 4:2:0
Bit depth : 8 bits
Scan type : Progressive
Bits/(Pixel*Frame) : 0.107
Stream size : 385 MiB (84%)
Writing library : x264 core 118
Encoding settings : cabac=1 / ref=3 / deblock=1:0:0 / analyse=0x1:0x111 / me=umh / subme=10 / psy=1 / psy_rd=1.00:0.00 / mixed_ref=1 / me_range=24 / chroma_me=1 / trellis=2 / 8x8dct=0 / cqm=0 / deadzone=21,11 / fast_pskip=1 / chroma_qp_offset=-2 / threads=8 / sliced_threads=0 / nr=0 / decimate=1 / interlaced=0 / bluray_compat=0 / constrained_intra=0 / bframes=2 / b_pyramid=0 / b_adapt=2 / b_bias=0 / direct=3 / weightb=1 / open_gop=0 / weightp=2 / keyint=48 / keyint_min=25 / scenecut=0 / intra_refresh=0 / rc_lookahead=0 / rc=2pass / mbtree=1 / bitrate=2490 / ratetol=1.0 / qcomp=0.50 / qpmin=6 / qpmax=51 / qpstep=4 / cplxblur=20.0 / qblur=0.5 / vbv_maxrate=3735 / vbv_bufsize=4980 / nal_hrd=vbr / ip_ratio=1.40 / aq=1:1.00
Default : Yes
Forced : No
Statistics Tags Issue : mkvmerge v11.0.0 ('Alive') 64bit 2017-11-17 08:12:55 / mkvmerge v11.0.0 ('Alive') 64bit 2017-11-17 08:12:55 / UTC 2017-10-09 14:37:10
FromStats_BitRate : 2408253
FromStats_Duration : 00:22:52.330000000
FromStats_FrameCount : 32903
FromStats_StreamSize : 413114839

Audio
ID : 2
Format : AC-3
Format/Info : Audio Coding 3
Format settings, Endianness : Big
Codec ID : A_AC3
Duration : 22 min 52 s
Bit rate mode : Constant
Bit rate : 384 kb/s
Channel(s) : 6 channels
Channel positions : Front: L C R, Side: L R, LFE
Sampling rate : 48.0 kHz
Frame rate : 31.250 FPS (1536 SPF)
Bit depth : 16 bits
Compression mode : Lossy
Stream size : 62.8 MiB (14%)
Language : English
Service kind : Complete Main
Default : Yes
Forced : No
Encoded date : UTC 2017-10-09 14:37:10
Statistics Tags Issue : mkvmerge v11.0.0 ('Alive') 64bit 2017-11-17 08:12:55 / mkvmerge v11.0.0 ('Alive') 64bit 2017-11-17 08:12:55 / UTC 2017-10-09 14:37:10
FromStats_BitRate : 384000
FromStats_Duration : 00:22:52.448000000
FromStats_FrameCount : 42889
FromStats_StreamSize : 65877504

Text #1
ID : 3
Format : UTF-8
Codec ID : S_TEXT/UTF8
Codec ID/Info : UTF-8 Plain Text
Title : English
Language : English
Default : No
Forced : No
Statistics Tags Issue : mkvmerge v11.0.0 ('Alive') 64bit 2017-11-17 08:12:55 / mkvmerge v11.0.0 ('Alive') 64bit 2017-11-17 08:12:55 / UTC 2017-10-09 14:37:10
FromStats_BitRate : 86
FromStats_Duration : 00:21:22.489000000
FromStats_FrameCount : 364
FromStats_StreamSize : 13897

Text #2
ID : 4
Format : UTF-8
Codec ID : S_TEXT/UTF8
Codec ID/Info : UTF-8 Plain Text
Title : Spanish
Language : Spanish
Default : No
Forced : No
Statistics Tags Issue : mkvmerge v11.0.0 ('Alive') 64bit 2017-11-17 08:12:55 / mkvmerge v11.0.0 ('Alive') 64bit 2017-11-17 08:12:55 / UTC 2017-10-09 14:37:10
FromStats_BitRate : 62
FromStats_Duration : 00:21:55.648000000
FromStats_FrameCount : 254
FromStats_StreamSize : 10280

Text #3
ID : 5
Format : UTF-8
Codec ID : S_TEXT/UTF8
Codec ID/Info : UTF-8 Plain Text
Title : French
Language : French
Default : No
Forced : No
Statistics Tags Issue : mkvmerge v11.0.0 ('Alive') 64bit 2017-11-17 08:12:55 / mkvmerge v11.0.0 ('Alive') 64bit 2017-11-17 08:12:55 / UTC 2017-10-09 14:37:10
FromStats_BitRate : 66
FromStats_Duration : 00:21:48.724000000
FromStats_FrameCount : 245
FromStats_StreamSize : 10927

Text #4
ID : 6
Format : UTF-8
Codec ID : S_TEXT/UTF8
Codec ID/Info : UTF-8 Plain Text
Title : German
Language : German
Default : No
Forced : No
Statistics Tags Issue : mkvmerge v11.0.0 ('Alive') 64bit 2017-11-17 08:12:55 / mkvmerge v11.0.0 ('Alive') 64bit 2017-11-17 08:12:55 / UTC 2017-10-09 14:37:10
FromStats_BitRate : 63
FromStats_Duration : 00:21:53.771000000
FromStats_FrameCount : 246
FromStats_StreamSize : 10487

Text #5
ID : 7
Format : UTF-8
Codec ID : S_TEXT/UTF8
Codec ID/Info : UTF-8 Plain Text
Title : Italian
Language : Italian
Default : No
Forced : No
Statistics Tags Issue : mkvmerge v11.0.0 ('Alive') 64bit 2017-11-17 08:12:55 / mkvmerge v11.0.0 ('Alive') 64bit 2017-11-17 08:12:55 / UTC 2017-10-09 14:37:10
FromStats_BitRate : 62
FromStats_Duration : 00:21:53.938000000
FromStats_FrameCount : 255
FromStats_StreamSize : 10312





Stretch Armstrong & the Flex Fighters S01E02


Stretch Armstrong & the Flex Fighters S01E02


Stretch Armstrong & the Flex Fighters S01E02


Stretch Armstrong & the Flex Fighters S01E02


Stretch Armstrong & the Flex Fighters S01E02

All episodes