Stretch Armstrong & the Flex Fighters S01E03

Posted By: Tavaz
720p (HD) / WEBRip IMDb
Stretch Armstrong & the Flex Fighters S01E03

Stretch Armstrong & the Flex Fighters S01E03
WEBRip | MKV | 1280x720 | English | H264 @ 2360 kbps | AC-3 @ 384 kbps | 23 min 12 s | 465 MiB
Subtitles: German, Italian, Spanish, French, English
Genre: Animation

When overscheduled teenager Jake Armstrong and his two best friends are accidentally exposed to an experimental chemical, they become Stretch Armstrong and the Flex Fighters, a team of unlikely superheroes who expand beyond the confines of their lives and embark on a series of adventures.

stretch.armstrong.and.the.flex.fighters.s01e03.720p.web.x264-convoy.sample.mkv (22.9 MB)
stretch.armstrong.and.the.flex.fighters.s01e03.720p.web.x264-convoy.mkv (464.8 MB)



General
Unique ID : 173333434931474814819840274412207272819 (0x8266CE262969B3AE98DB5B78F522F373)
Complete name : ./stretch.armstrong.and.the.flex.fighters.s01e03.720p.web.x264-convoy.mkv
Format : Matroska
Format version : Version 4 / Version 2
File size : 465 MiB
Duration : 23 min 12 s
Overall bit rate mode : Variable
Overall bit rate : 2 800 kb/s
Encoded date : UTC 2017-11-17 08:13:47 / UTC 2017-10-09 14:37:55
Writing application : mkvmerge v11.0.0 ('Alive') 64bit
Writing library : libebml v1.3.4 + libmatroska v1.4.5 / Lavf58.0.0

Video
ID : 1
Format : AVC
Format/Info : Advanced Video Codec
Format profile : Main@L3.1
Format settings : CABAC / 3 Ref Frames
Format settings, CABAC : Yes
Format settings, RefFrames : 3 frames
Codec ID : V_MPEG4/ISO/AVC
Duration : 23 min 12 s
Bit rate mode : Variable
Bit rate : 2 360 kb/s
Nominal bit rate : 2 490 kb/s
Maximum bit rate : 3 735 kb/s
Width : 1 280 pixels
Height : 720 pixels
Display aspect ratio : 16:9
Frame rate mode : Constant
Frame rate : 23.976 (24000/1001) FPS
Color space : YUV
Chroma subsampling : 4:2:0
Bit depth : 8 bits
Scan type : Progressive
Bits/(Pixel*Frame) : 0.107
Stream size : 392 MiB (84%)
Writing library : x264 core 118
Encoding settings : cabac=1 / ref=3 / deblock=1:0:0 / analyse=0x1:0x111 / me=umh / subme=10 / psy=1 / psy_rd=1.00:0.00 / mixed_ref=1 / me_range=24 / chroma_me=1 / trellis=2 / 8x8dct=0 / cqm=0 / deadzone=21,11 / fast_pskip=1 / chroma_qp_offset=-2 / threads=8 / sliced_threads=0 / nr=0 / decimate=1 / interlaced=0 / bluray_compat=0 / constrained_intra=0 / bframes=2 / b_pyramid=0 / b_adapt=2 / b_bias=0 / direct=3 / weightb=1 / open_gop=0 / weightp=2 / keyint=48 / keyint_min=25 / scenecut=0 / intra_refresh=0 / rc_lookahead=0 / rc=2pass / mbtree=1 / bitrate=2490 / ratetol=1.0 / qcomp=0.50 / qpmin=6 / qpmax=51 / qpstep=4 / cplxblur=20.0 / qblur=0.5 / vbv_maxrate=3735 / vbv_bufsize=4980 / nal_hrd=vbr / ip_ratio=1.40 / aq=1:1.00
Default : Yes
Forced : No
Statistics Tags Issue : mkvmerge v11.0.0 ('Alive') 64bit 2017-11-17 08:13:47 / mkvmerge v11.0.0 ('Alive') 64bit 2017-11-17 08:13:47 / UTC 2017-10-09 14:37:55
FromStats_BitRate : 2413670
FromStats_Duration : 00:23:12.350000000
FromStats_FrameCount : 33383
FromStats_StreamSize : 420084288

Audio
ID : 2
Format : AC-3
Format/Info : Audio Coding 3
Format settings, Endianness : Big
Codec ID : A_AC3
Duration : 23 min 12 s
Bit rate mode : Constant
Bit rate : 384 kb/s
Channel(s) : 6 channels
Channel positions : Front: L C R, Side: L R, LFE
Sampling rate : 48.0 kHz
Frame rate : 31.250 FPS (1536 SPF)
Bit depth : 16 bits
Compression mode : Lossy
Stream size : 63.7 MiB (14%)
Language : English
Service kind : Complete Main
Default : Yes
Forced : No
Encoded date : UTC 2017-10-09 14:37:55
Statistics Tags Issue : mkvmerge v11.0.0 ('Alive') 64bit 2017-11-17 08:13:47 / mkvmerge v11.0.0 ('Alive') 64bit 2017-11-17 08:13:47 / UTC 2017-10-09 14:37:55
FromStats_BitRate : 384000
FromStats_Duration : 00:23:12.416000000
FromStats_FrameCount : 43513
FromStats_StreamSize : 66835968

Text #1
ID : 3
Format : UTF-8
Codec ID : S_TEXT/UTF8
Codec ID/Info : UTF-8 Plain Text
Title : English
Language : English
Default : No
Forced : No
Statistics Tags Issue : mkvmerge v11.0.0 ('Alive') 64bit 2017-11-17 08:13:47 / mkvmerge v11.0.0 ('Alive') 64bit 2017-11-17 08:13:47 / UTC 2017-10-09 14:37:55
FromStats_BitRate : 66
FromStats_Duration : 00:21:35.502000000
FromStats_FrameCount : 259
FromStats_StreamSize : 10834

Text #2
ID : 4
Format : UTF-8
Codec ID : S_TEXT/UTF8
Codec ID/Info : UTF-8 Plain Text
Title : Spanish
Language : Spanish
Default : No
Forced : No
Statistics Tags Issue : mkvmerge v11.0.0 ('Alive') 64bit 2017-11-17 08:13:47 / mkvmerge v11.0.0 ('Alive') 64bit 2017-11-17 08:13:47 / UTC 2017-10-09 14:37:55
FromStats_BitRate : 55
FromStats_Duration : 00:22:15.668000000
FromStats_FrameCount : 234
FromStats_StreamSize : 9237

Text #3
ID : 5
Format : UTF-8
Codec ID : S_TEXT/UTF8
Codec ID/Info : UTF-8 Plain Text
Title : French
Language : French
Default : No
Forced : No
Statistics Tags Issue : mkvmerge v11.0.0 ('Alive') 64bit 2017-11-17 08:13:47 / mkvmerge v11.0.0 ('Alive') 64bit 2017-11-17 08:13:47 / UTC 2017-10-09 14:37:55
FromStats_BitRate : 61
FromStats_Duration : 00:22:08.702000000
FromStats_FrameCount : 233
FromStats_StreamSize : 10155

Text #4
ID : 6
Format : UTF-8
Codec ID : S_TEXT/UTF8
Codec ID/Info : UTF-8 Plain Text
Title : German
Language : German
Default : No
Forced : No
Statistics Tags Issue : mkvmerge v11.0.0 ('Alive') 64bit 2017-11-17 08:13:47 / mkvmerge v11.0.0 ('Alive') 64bit 2017-11-17 08:13:47 / UTC 2017-10-09 14:37:55
FromStats_BitRate : 60
FromStats_Duration : 00:22:13.749000000
FromStats_FrameCount : 231
FromStats_StreamSize : 10096

Text #5
ID : 7
Format : UTF-8
Codec ID : S_TEXT/UTF8
Codec ID/Info : UTF-8 Plain Text
Title : Italian
Language : Italian
Default : No
Forced : No
Statistics Tags Issue : mkvmerge v11.0.0 ('Alive') 64bit 2017-11-17 08:13:47 / mkvmerge v11.0.0 ('Alive') 64bit 2017-11-17 08:13:47 / UTC 2017-10-09 14:37:55
FromStats_BitRate : 58
FromStats_Duration : 00:22:14.500000000
FromStats_FrameCount : 233
FromStats_StreamSize : 9769





Stretch Armstrong & the Flex Fighters S01E03


Stretch Armstrong & the Flex Fighters S01E03


Stretch Armstrong & the Flex Fighters S01E03


Stretch Armstrong & the Flex Fighters S01E03


Stretch Armstrong & the Flex Fighters S01E03

All episodes