Stretch Armstrong & the Flex Fighters S01E08

Posted By: Tavaz
720p (HD) / WEBRip IMDb
Stretch Armstrong & the Flex Fighters S01E08

Stretch Armstrong & the Flex Fighters S01E08
WEBRip | MKV | 1280x720 | English | H264 @ 2370 kbps | AC-3 @ 384 kbps | 22 min 52 s | 437 MiB
Subtitles: German, Spanish, Dutch, French, English
Genre: Animation

When overscheduled teenager Jake Armstrong and his two best friends are accidentally exposed to an experimental chemical, they become Stretch Armstrong and the Flex Fighters, a team of unlikely superheroes who expand beyond the confines of their lives and embark on a series of adventures.

stretch.armstrong.and.the.flex.fighters.s01e08.720p.web.x264-strife.mkv (437.3 MB)



General
Unique ID : 161353448635735288642870803095679158224 (0x79638B38D23300EFEF3DC510370C47D0)
Complete name : ./stretch.armstrong.and.the.flex.fighters.s01e08.720p.web.x264-strife.mkv
Format : Matroska
Format version : Version 4 / Version 2
File size : 437 MiB
Duration : 22 min 52 s
Overall bit rate mode : Variable
Overall bit rate : 2 673 kb/s
Encoded date : UTC 2017-11-17 08:41:52
Writing application : mkvmerge v7.3.0 ('Nouages') 64bit built on Oct 23 2014 13:14:01
Writing library : libebml v1.3.0 + libmatroska v1.4.1

Video
ID : 1
Format : AVC
Format/Info : Advanced Video Codec
Format profile : Main@L3.1
Format settings : CABAC / 3 Ref Frames
Format settings, CABAC : Yes
Format settings, RefFrames : 3 frames
Codec ID : V_MPEG4/ISO/AVC
Duration : 22 min 52 s
Bit rate mode : Variable
Bit rate : 2 370 kb/s
Maximum bit rate : 3 555 kb/s
Width : 1 280 pixels
Height : 720 pixels
Display aspect ratio : 16:9
Frame rate mode : Constant
Frame rate : 23.976 (24000/1001) FPS
Color space : YUV
Chroma subsampling : 4:2:0
Bit depth : 8 bits
Scan type : Progressive
Bits/(Pixel*Frame) : 0.107
Stream size : 374 MiB (86%)
Writing library : x264 core 118
Encoding settings : cabac=1 / ref=3 / deblock=1:0:0 / analyse=0x1:0x111 / me=umh / subme=10 / psy=1 / psy_rd=1.00:0.00 / mixed_ref=1 / me_range=24 / chroma_me=1 / trellis=2 / 8x8dct=0 / cqm=0 / deadzone=21,11 / fast_pskip=1 / chroma_qp_offset=-2 / threads=6 / sliced_threads=0 / nr=0 / decimate=1 / interlaced=0 / bluray_compat=0 / constrained_intra=0 / bframes=2 / b_pyramid=0 / b_adapt=2 / b_bias=0 / direct=3 / weightb=1 / open_gop=0 / weightp=2 / keyint=48 / keyint_min=25 / scenecut=0 / intra_refresh=0 / rc_lookahead=0 / rc=2pass / mbtree=1 / bitrate=2370 / ratetol=1.0 / qcomp=0.50 / qpmin=6 / qpmax=51 / qpstep=4 / cplxblur=20.0 / qblur=0.5 / vbv_maxrate=3555 / vbv_bufsize=4740 / nal_hrd=vbr / ip_ratio=1.40 / aq=1:1.00
Default : Yes
Forced : No

Audio
ID : 2
Format : AC-3
Format/Info : Audio Coding 3
Format settings, Endianness : Big
Codec ID : A_AC3
Duration : 22 min 52 s
Bit rate mode : Constant
Bit rate : 384 kb/s
Channel(s) : 6 channels
Channel positions : Front: L C R, Side: L R, LFE
Sampling rate : 48.0 kHz
Frame rate : 31.250 FPS (1536 SPF)
Bit depth : 16 bits
Compression mode : Lossy
Stream size : 62.8 MiB (14%)
Language : English
Service kind : Complete Main
Default : Yes
Forced : No

Text #1
ID : 3
Format : UTF-8
Codec ID : S_TEXT/UTF8
Codec ID/Info : UTF-8 Plain Text
Duration : 21 min 23 s
Bit rate : 66 b/s
Count of elements : 318
Stream size : 10.4 KiB (0%)
Language : English
Default : No
Forced : No

Text #2
ID : 4
Format : UTF-8
Codec ID : S_TEXT/UTF8
Codec ID/Info : UTF-8 Plain Text
Duration : 21 min 31 s
Bit rate : 50 b/s
Count of elements : 201
Stream size : 8.00 KiB (0%)
Language : Dutch
Default : No
Forced : No

Text #3
ID : 5
Format : UTF-8
Codec ID : S_TEXT/UTF8
Codec ID/Info : UTF-8 Plain Text
Duration : 21 min 48 s
Bit rate : 52 b/s
Count of elements : 217
Stream size : 8.31 KiB (0%)
Language : French
Default : No
Forced : No

Text #4
ID : 6
Format : UTF-8
Codec ID : S_TEXT/UTF8
Codec ID/Info : UTF-8 Plain Text
Duration : 21 min 53 s
Bit rate : 48 b/s
Count of elements : 220
Stream size : 7.72 KiB (0%)
Language : German
Default : No
Forced : No

Text #5
ID : 7
Format : UTF-8
Codec ID : S_TEXT/UTF8
Codec ID/Info : UTF-8 Plain Text
Duration : 21 min 55 s
Bit rate : 49 b/s
Count of elements : 217
Stream size : 7.90 KiB (0%)
Language : Spanish
Default : No
Forced : No





Stretch Armstrong & the Flex Fighters S01E08


Stretch Armstrong & the Flex Fighters S01E08


Stretch Armstrong & the Flex Fighters S01E08


Stretch Armstrong & the Flex Fighters S01E08


Stretch Armstrong & the Flex Fighters S01E08

All episodes