Strike Back S06E02

Posted By: Tavaz
720p (HD) / WEB-DL IMDb
Strike Back S06E02

Strike Back S06E02
WEB-DL | MKV | 1280x720 | English | H264 @ 3351 kbps | E-AC-3 @ 640 kbps | 51 min 49 s | 1.45 GiB
Subtitles: English
Genre: Action, Adventure, Drama

The series follows John Porter, a former British Special Forces soldier, who is drafted back into service by Section 20, a fictional branch of the Secret Intelligence Service.

d4b5b77db13f4b7f9124c9383d66ad34.mkv (1.4 GB)



General
Unique ID : 313264846636212170206108897045892987231 (0xEBAC9D67DCA0410A8AC930590642795F)
Complete name : ./d4b5b77db13f4b7f9124c9383d66ad34.mkv
Format : Matroska
Format version : Version 4 / Version 2
File size : 1.45 GiB
Duration : 51 min 49 s
Overall bit rate mode : Variable
Overall bit rate : 3 994 kb/s
Encoded date : UTC 2018-02-13 21:37:36
Writing application : mkvmerge v20.0.0 ('I Am The Sun') 64-bit
Writing library : libebml v1.3.5 + libmatroska v1.4.8

Video
ID : 1
Format : AVC
Format/Info : Advanced Video Codec
Format profile : High@L3.1
Format settings : CABAC / 5 Ref Frames
Format settings, CABAC : Yes
Format settings, RefFrames : 5 frames
Codec ID : V_MPEG4/ISO/AVC
Duration : 51 min 49 s
Bit rate mode : Variable
Bit rate : 3 352 kb/s
Maximum bit rate : 4 500 kb/s
Width : 1 280 pixels
Height : 720 pixels
Display aspect ratio : 16:9
Frame rate mode : Constant
Frame rate : 23.976 (24000/1001) FPS
Color space : YUV
Chroma subsampling : 4:2:0
Bit depth : 8 bits
Scan type : Progressive
Bits/(Pixel*Frame) : 0.152
Stream size : 1.21 GiB (84%)
Default : Yes
Forced : No
Color range : Limited
Color primaries : BT.709
Transfer characteristics : BT.709
Matrix coefficients : BT.709

Audio
ID : 2
Format : E-AC-3
Format/Info : Enhanced Audio Coding 3
Format settings, Endianness : Big
Codec ID : A_EAC3
Duration : 51 min 49 s
Bit rate mode : Constant
Bit rate : 640 kb/s
Channel(s) : 6 channels
Channel positions : Front: L C R, Side: L R, LFE
Sampling rate : 48.0 kHz
Frame rate : 187.500 FPS (256 SPF)
Compression mode : Lossy
Stream size : 237 MiB (16%)
Language : English
Service kind : Complete Main
Default : Yes
Forced : No

Text #1
ID : 3
Format : UTF-8
Codec ID : S_TEXT/UTF8
Codec ID/Info : UTF-8 Plain Text
Duration : 51 min 36 s
Bit rate : 56 b/s
Count of elements : 828
Stream size : 21.5 KiB (0%)
Language : English
Default : No
Forced : No

Text #2
ID : 4
Format : UTF-8
Codec ID : S_TEXT/UTF8
Codec ID/Info : UTF-8 Plain Text
Duration : 51 min 37 s
Bit rate : 68 b/s
Count of elements : 1068
Stream size : 25.8 KiB (0%)
Title : SDH
Language : English
Default : No
Forced : No





Strike Back S06E02


Strike Back S06E02


Strike Back S06E02


Strike Back S06E02


Strike Back S06E02

All episodes