Supergirl S03E19

Posted By: Tavaz
1080p (FullHD) / WEB-DL IMDb
Supergirl S03E19

Supergirl S03E19
WEB-DL | MKV | 1920x1080 | Italian | H264 @ 4967 kbps | AC-3 @ 192 kbps | 40 min 32 s | 1.46 GiB
Genre: Azione, Avventura, Dramma, Fantascienza

Kara Zor-El (Melissa Benoist), nata sul pianeta Kripton, viene spedita sulla Terra assieme a suo cugino Kal-El (poi noto come Superman) dai suoi genitori Alura (Laura Benanti) e Zor-El (Robert Gant). Adottata, accudita e cresciuta per 12 anni dalla famiglia Danvers, mentre lavora come giornalista per la testata giornalistica CatCo, diretta dalla superficiale Cat Grant (Calissa Flockhart ), rivela i propri poteri soprannaturali cercando di salvare da un disastro aereo la sorella acquisita Alex (Chyler Leigh), decidendo allora di trasformarsi in supereroina e proteggere i cittadini di National City. Nonostante le raccomandazioni ricevute, Kara decide poco avvedutamente di rivelare il suo segreto, cosa che la porterà ad affrontare di volta in volta nemici e alieni, sotto le mentite spoglie di esseri umani, sempre più determinati ad eliminarla. Tra questi vi è anche la zia Astra, che vuole conquistare la terra e vendicarsi di Alura, rea di averla fatta imprigionare su Krypton. Kara però, grazie anche al sostegno del suo collega fotografo Will (Jimmy Olsen), della sorella e del capo del Dipartimento di Operazioni Extranormali Hank Henshaw (David Harewood), riuscirà ad ostacolare i suoi tentativi e a frenare i suoi diabolici piani.

Supergirl.3x19.Fanatismo.ITA.1080p.WEBMux.x264-NovaRip.mkv (1.5 GB)



General
Unique ID : 334511626630869806757983735389860013143 (0xFBA8988974A8926AA0C18B85DD0A2457)
Complete name : ./Supergirl.3x19.Fanatismo.ITA.1080p.WEBMux.x264-NovaRip.mkv
Format : Matroska
Format version : Version 2
File size : 1.46 GiB
Duration : 40 min 32 s
Overall bit rate : 5 161 kb/s
Encoded date : UTC 2018-07-12 19:09:37
Writing application : mkvmerge v8.5.2 ('Crosses') 64bit
Writing library : libebml v1.3.3 + libmatroska v1.4.4

Video
ID : 1
Format : AVC
Format/Info : Advanced Video Codec
Format profile : High@L4.1
Format settings : CABAC / 4 Ref Frames
Format settings, CABAC : Yes
Format settings, RefFrames : 4 frames
Codec ID : V_MPEG4/ISO/AVC
Duration : 40 min 32 s
Bit rate : 4 968 kb/s
Width : 1 920 pixels
Height : 1 080 pixels
Display aspect ratio : 16:9
Frame rate mode : Constant
Frame rate : 25.000 FPS
Original frame rate : 23.976 (24000/1001) FPS
Color space : YUV
Chroma subsampling : 4:2:0
Bit depth : 8 bits
Scan type : Progressive
Bits/(Pixel*Frame) : 0.096
Stream size : 1.41 GiB (96%)
Writing library : x264 core 155 r2893 b00bcaf
Encoding settings : cabac=1 / ref=4 / deblock=1:-2:-2 / analyse=0x3:0x133 / me=umh / subme=7 / psy=1 / psy_rd=1.00:0.00 / mixed_ref=1 / me_range=16 / chroma_me=1 / trellis=2 / 8x8dct=1 / cqm=0 / deadzone=21,11 / fast_pskip=0 / chroma_qp_offset=-2 / threads=6 / lookahead_threads=1 / sliced_threads=0 / nr=0 / decimate=1 / interlaced=0 / bluray_compat=0 / constrained_intra=0 / bframes=5 / b_pyramid=2 / b_adapt=2 / b_bias=0 / direct=3 / weightb=1 / open_gop=0 / weightp=2 / keyint=250 / keyint_min=23 / scenecut=40 / intra_refresh=0 / rc_lookahead=40 / rc=crf / mbtree=1 / crf=20.0 / qcomp=0.60 / qpmin=0 / qpmax=69 / qpstep=4 / ip_ratio=1.40 / aq=1:1.00
Language : English
Default : Yes
Forced : Yes

Audio
ID : 2
Format : AC-3
Format/Info : Audio Coding 3
Format settings, Endianness : Big
Codec ID : A_AC3
Duration : 40 min 32 s
Bit rate mode : Constant
Bit rate : 192 kb/s
Channel(s) : 2 channels
Channel positions : Front: L R
Sampling rate : 48.0 kHz
Frame rate : 31.250 FPS (1536 SPF)
Bit depth : 16 bits
Compression mode : Lossy
Stream size : 55.7 MiB (4%)
Title : ITA
Language : Italian
Service kind : Complete Main
Default : Yes
Forced : Yes





Supergirl S03E19


Supergirl S03E19


Supergirl S03E19


Supergirl S03E19


Supergirl S03E19

All episodes