Thats How I Lost The Last One S01E01

Posted By: Tavaz
720p (HD) / WEBRip IMDb
Thats How I Lost The Last One S01E01

Thats How I Lost The Last One S01E01
WEBRip | MKV | 1280x720 | English | H264 @ 1522 kbps | AAC @ 128 kbps | 4 min 27 s | 52.6 MiB



thats.how.i.lost.the.last.one.s01e01.720p.web.x264-cookiemonster.mkv (52.6 MB)



General
Unique ID : 220355249306119928055012340597921534657 (0xA5C6E0970157689A3BBCEA4EBCE9D2C1)
Complete name : ./thats.how.i.lost.the.last.one.s01e01.720p.web.x264-cookiemonster.mkv
Format : Matroska
Format version : Version 4 / Version 2
File size : 52.6 MiB
Duration : 4 min 27 s
Overall bit rate : 1 653 kb/s
Encoded date : UTC 2018-05-04 18:18:39
Writing application : mkvmerge v9.8.0 ('Kuglblids') 64bit
Writing library : libebml v1.3.4 + libmatroska v1.4.5

Video
ID : 1
Format : AVC
Format/Info : Advanced Video Codec
Format profile : High@L4
Format settings : CABAC / 4 Ref Frames
Format settings, CABAC : Yes
Format settings, RefFrames : 4 frames
Codec ID : V_MPEG4/ISO/AVC
Duration : 4 min 27 s
Bit rate : 1 522 kb/s
Width : 1 280 pixels
Height : 720 pixels
Display aspect ratio : 16:9
Frame rate mode : Constant
Frame rate : 23.976 (24000/1001) FPS
Color space : YUV
Chroma subsampling : 4:2:0
Bit depth : 8 bits
Scan type : Progressive
Bits/(Pixel*Frame) : 0.069
Stream size : 48.5 MiB (92%)
Writing library : x264 core 138
Encoding settings : cabac=1 / ref=4 / deblock=1:0:0 / analyse=0x3:0x113 / me=umh / subme=10 / psy=1 / psy_rd=1.00:0.15 / mixed_ref=1 / me_range=16 / chroma_me=1 / trellis=2 / 8x8dct=1 / cqm=0 / deadzone=21,11 / fast_pskip=1 / chroma_qp_offset=-3 / threads=32 / lookahead_threads=2 / sliced_threads=0 / nr=0 / decimate=0 / interlaced=0 / bluray_compat=0 / constrained_intra=0 / bframes=3 / b_pyramid=0 / b_adapt=2 / b_bias=0 / direct=3 / weightb=1 / open_gop=0 / weightp=2 / keyint=48 / keyint_min=23 / scenecut=0 / intra_refresh=0 / rc_lookahead=48 / rc=crf / mbtree=1 / crf=19.0 / qcomp=0.60 / qpmin=10 / qpmax=51 / qpstep=4 / vbv_maxrate=3000 / vbv_bufsize=6000 / crf_max=0.0 / nal_hrd=none / filler=0 / ip_ratio=1.40 / aq=1:0.80
Default : Yes
Forced : No

Audio
ID : 2
Format : AAC
Format/Info : Advanced Audio Codec
Format profile : LC
Codec ID : A_AAC-2
Duration : 4 min 26 s
Bit rate : 128 kb/s
Channel(s) : 2 channels
Channel positions : Front: L R
Sampling rate : 48.0 kHz
Frame rate : 46.875 FPS (1024 SPF)
Compression mode : Lossy
Stream size : 4.08 MiB (8%)
Default : Yes
Forced : No





Thats How I Lost The Last One S01E01


Thats How I Lost The Last One S01E01


Thats How I Lost The Last One S01E01


Thats How I Lost The Last One S01E01

All episodes