The Blacklist S05E05

Posted By: Tavaz
SD / WEBRip IMDb
The Blacklist S05E05

The Blacklist S05E05
WEBRip | MKV | 720x404 | German | H264 @ 805 kbps | AC-3 @ 192 kbps | 41 min 15 s | 300 MiB
Genre: Krimi, Drama, Mystery

Raymond „Red“ Reddington ist ein ehemaliger Offizier des amerikanischen Marinegeheimdienstes und einer der meistgesuchten Verbrecher der USA. Eines Tages stellt er sich in der FBI-Hauptzentrale in Washington, D.C. und bietet dem FBI an, bei der Suche nach Verbrechern und Terroristen zu helfen. Allerdings verlangt er, einzig mit der FBI-Agentin Elizabeth Keen zu verhandeln, die vor Kurzem erst aus Quantico zugezogen ist. Die Informationen, die er weitergibt, stammen von einer von ihm über Jahre angelegten Liste, der sogenannten Blacklist.

Reddington verfolgt mit seinen Enthüllungen erkennbar auch eigene, meist hochgradig illegale Absichten, aber sein vorrangiger Antrieb ist es, Kontakt zu Elizabeth aufzubauen und diese um jeden Preis zu schützen. Elisabeth Keen ist offiziell eine Vollwaise, die von Sam Keen, einem alten Freund von Reddington, großgezogen wurde. Als dieser wegen einer Krebserkrankung im Krankenhaus behandelt wird, erstickt Reddington ihn, damit er ein nicht näher benanntes Geheimnis nicht an seine Tochter verraten kann. Reddington versucht auch, Elizabeth davon zu überzeugen, dass ihr Ehemann Tom Keen ein auf sie angesetzter Undercover-Spion ist; dies gelingt ihm aber nicht, da Tom selbst ein intensives Verhör durch Meera Malik, der CIA-Agentin aus Elizabeths Team, besteht.

S05E05 Ilyas Surkov.mkv (300.5 MB)



General
Unique ID : 51207492757002597725777901763183958319 (0x26863451723A230097CEAC2FBC0ED92F)
Complete name : ./Schwarze Liste S05E05 German/S05E05 Ilyas Surkov.mkv
Format : Matroska
Format version : Version 2
File size : 300 MiB
Duration : 41 min 15 s
Overall bit rate : 1 018 kb/s
Movie name : The.Blacklist.S05E05.Ilyas.Surkov.GERMAN.DUBBED.WS.WebRip.x264-TVP
Encoded date : UTC 2018-03-13 20:44:19
Writing application : mkvmerge v5.6.0 ('Kenya Kane') built on May 28 2012 06:47:39
Writing library : libebml v1.2.2 + libmatroska v1.3.0

Video
ID : 1
Format : AVC
Format/Info : Advanced Video Codec
Format profile : High@L3.1
Format settings : CABAC / 8 Ref Frames
Format settings, CABAC : Yes
Format settings, RefFrames : 8 frames
Codec ID : V_MPEG4/ISO/AVC
Duration : 41 min 15 s
Bit rate : 806 kb/s
Width : 720 pixels
Height : 404 pixels
Display aspect ratio : 16:9
Frame rate mode : Constant
Frame rate : 25.000 FPS
Original frame rate : 23.976 (24000/1001) FPS
Color space : YUV
Chroma subsampling : 4:2:0
Bit depth : 8 bits
Scan type : Progressive
Bits/(Pixel*Frame) : 0.111
Stream size : 238 MiB (79%)
Title : tvp-theblacklist-s05e05-480p
Writing library : x264 core 155 r2893 b00bcaf
Encoding settings : cabac=1 / ref=8 / deblock=1:-2:-2 / analyse=0x3:0x133 / me=umh / subme=9 / psy=1 / psy_rd=1.00:0.15 / mixed_ref=1 / me_range=16 / chroma_me=1 / trellis=2 / 8x8dct=1 / cqm=0 / deadzone=21,11 / fast_pskip=1 / chroma_qp_offset=-3 / threads=12 / lookahead_threads=1 / sliced_threads=0 / nr=0 / decimate=1 / interlaced=0 / bluray_compat=0 / constrained_intra=0 / bframes=3 / b_pyramid=2 / b_adapt=2 / b_bias=0 / direct=3 / weightb=1 / open_gop=0 / weightp=2 / keyint=240 / keyint_min=24 / scenecut=40 / intra_refresh=0 / rc_lookahead=60 / rc=crf / mbtree=1 / crf=19.0 / qcomp=0.60 / qpmin=0 / qpmax=69 / qpstep=4 / vbv_maxrate=17500 / vbv_bufsize=17500 / crf_max=0.0 / nal_hrd=none / filler=0 / ip_ratio=1.40 / aq=1:1.00
Language : German
Default : Yes
Forced : Yes
Color range : Limited
Color primaries : BT.709
Transfer characteristics : BT.709
Matrix coefficients : BT.709

Audio
ID : 2
Format : AC-3
Format/Info : Audio Coding 3
Format settings, Endianness : Big
Codec ID : A_AC3
Duration : 41 min 15 s
Bit rate mode : Constant
Bit rate : 192 kb/s
Channel(s) : 2 channels
Channel positions : Front: L R
Sampling rate : 48.0 kHz
Frame rate : 31.250 FPS (1536 SPF)
Bit depth : 16 bits
Compression mode : Lossy
Stream size : 56.7 MiB (19%)
Language : German
Service kind : Complete Main
Default : Yes
Forced : Yes





The Blacklist S05E05


The Blacklist S05E05


The Blacklist S05E05


The Blacklist S05E05


The Blacklist S05E05

All episodes