The Detour S03E08

Posted By: Tavaz
1080p (FullHD) / HDTV IMDb
The Detour S03E08

The Detour S03E08
HDTV | MKV | 1920x1080 | French / English | H264 @ 7514 kbps | E-AC-3 @ 96 kbps | 20 min 12 s | 1.09 GiB
Subtitles: French
Genre: Comedy

A what-in-the-living-hell-is-wrong-with-this-family comedy created by comic super-couple Jason Jones & Samantha Bee and inspired by their own experiences with family trips. Unfiltered dad Nate hits the road with wife Robin and kids Delilah and Jared. Every leg of their trip is fraught with disaster as they encounter one hellish turn after another. If there's trouble on the road, this family will find it and plow into it.

b08a0ee1f7b8470daf8e274b615e66aa.mkv (1.1 GB)



General
Unique ID : 51794725716643175882144528498834434820 (0x26F74D236E9CF521B392F1F0D1DA6B04)
Complete name : ./b08a0ee1f7b8470daf8e274b615e66aa.mkv
Format : Matroska
Format version : Version 4 / Version 2
File size : 1.09 GiB
Duration : 20 min 12 s
Overall bit rate : 7 709 kb/s
Encoded date : UTC 2018-07-12 15:19:28
Writing application : mkvmerge v24.0.0 ('Beyond The Pale') 32-bit
Writing library : libebml v1.3.6 + libmatroska v1.4.9

Video
ID : 1
Format : AVC
Format/Info : Advanced Video Codec
Format profile : High@L4.1
Format settings : CABAC / 4 Ref Frames
Format settings, CABAC : Yes
Format settings, RefFrames : 4 frames
Codec ID : V_MPEG4/ISO/AVC
Duration : 20 min 12 s
Bit rate : 7 514 kb/s
Width : 1 920 pixels
Height : 1 080 pixels
Display aspect ratio : 16:9
Frame rate mode : Constant
Frame rate : 25.000 FPS
Color space : YUV
Chroma subsampling : 4:2:0
Bit depth : 8 bits
Scan type : Progressive
Bits/(Pixel*Frame) : 0.145
Stream size : 1.06 GiB (97%)
Title : The Detour S03E08
Writing library : x264 core 155 r2901 7d0ff22
Encoding settings : opencl=1 / cabac=1 / ref=4 / deblock=1:-2:-2 / analyse=0x3:0x133 / me=umh / subme=8 / psy=1 / psy_rd=1.00:0.00 / mixed_ref=1 / me_range=24 / chroma_me=1 / trellis=2 / 8x8dct=1 / cqm=0 / deadzone=21,11 / fast_pskip=0 / chroma_qp_offset=-2 / threads=12 / lookahead_threads=2 / sliced_threads=0 / nr=0 / decimate=1 / interlaced=0 / bluray_compat=0 / constrained_intra=0 / bframes=3 / b_pyramid=2 / b_adapt=2 / b_bias=0 / direct=3 / weightb=1 / open_gop=0 / weightp=2 / keyint=250 / keyint_min=25 / scenecut=40 / intra_refresh=0 / rc_lookahead=60 / rc=crf / mbtree=1 / crf=17.0 / qcomp=0.60 / qpmin=0 / qpmax=69 / qpstep=4 / ip_ratio=1.40 / aq=1:1.00
Language : French
Default : Yes
Forced : No
Color range : Limited
Matrix coefficients : BT.709

Audio #1
ID : 2
Format : E-AC-3
Format/Info : Enhanced Audio Coding 3
Format settings, Endianness : Big
Codec ID : A_EAC3
Duration : 20 min 12 s
Bit rate mode : Constant
Bit rate : 96.0 kb/s
Channel(s) : 2 channels
Channel positions : Front: L R
Sampling rate : 48.0 kHz
Frame rate : 187.500 FPS (256 SPF)
Compression mode : Lossy
Stream size : 13.9 MiB (1%)
Title : Français E-AC3 2.0
Language : French
Service kind : Complete Main
Default : Yes
Forced : No

Audio #2
ID : 3
Format : E-AC-3
Format/Info : Enhanced Audio Coding 3
Format settings, Endianness : Big
Codec ID : A_EAC3
Duration : 20 min 12 s
Bit rate mode : Constant
Bit rate : 96.0 kb/s
Channel(s) : 2 channels
Channel positions : Front: L R
Sampling rate : 48.0 kHz
Frame rate : 187.500 FPS (256 SPF)
Compression mode : Lossy
Stream size : 13.9 MiB (1%)
Title : Anglais E-AC3 2.0
Language : English
Service kind : Complete Main
Default : No
Forced : No

Text
ID : 5
Format : UTF-8
Codec ID : S_TEXT/UTF8
Codec ID/Info : UTF-8 Plain Text
Duration : 20 min 8 s
Bit rate : 75 b/s
Count of elements : 367
Stream size : 11.2 KiB (0%)
Title : Français
Language : French
Default : No
Forced : No





The Detour S03E08


The Detour S03E08


The Detour S03E08


The Detour S03E08


The Detour S03E08

All episodes