The Expanse S03E10

Posted By: Tavaz
1080p (FullHD) / WEB-DL IMDb
The Expanse S03E10

The Expanse S03E10
WEB-DL | MKV | 1920x1080 | English | H264 @ 6828 kbps | E-AC-3 @ 640 kbps | 42 min 16 s | 2.21 GiB
Subtitles: English
Genre: Drama, Mystery

A thriller set two hundred years in the future following the case of a missing young woman who brings a hardened detective and a rogue ship's captain together in a race across the solar system to expose the greatest conspiracy in human history.

47ab897e018546f8bad81a9647fb4371.mkv (2.2 GB)



General
Unique ID : 179584686948691217291313254200517997516 (0x871AC0AB5CE21D96E65859A6519233CC)
Complete name : ./47ab897e018546f8bad81a9647fb4371.mkv
Format : Matroska
Format version : Version 4 / Version 2
File size : 2.21 GiB
Duration : 42 min 16 s
Overall bit rate : 7 470 kb/s
Encoded date : UTC 2018-06-14 07:21:15
Writing application : mkvmerge v21.0.0 ('Tardigrades Will Inherit The Earth') 64-bit
Writing library : libebml v1.3.5 + libmatroska v1.4.8

Video
ID : 1
Format : AVC
Format/Info : Advanced Video Codec
Format profile : High@L4
Format settings : CABAC / 4 Ref Frames
Format settings, CABAC : Yes
Format settings, RefFrames : 4 frames
Codec ID : V_MPEG4/ISO/AVC
Duration : 42 min 16 s
Bit rate : 6 828 kb/s
Width : 1 920 pixels
Height : 1 080 pixels
Display aspect ratio : 16:9
Frame rate mode : Constant
Frame rate : 23.976 (24000/1001) FPS
Color space : YUV
Chroma subsampling : 4:2:0
Bit depth : 8 bits
Scan type : Progressive
Bits/(Pixel*Frame) : 0.137
Stream size : 2.02 GiB (91%)
Default : Yes
Forced : No
Color range : Limited
Color primaries : BT.709
Transfer characteristics : BT.709
Matrix coefficients : BT.709

Audio
ID : 2
Format : E-AC-3
Format/Info : Enhanced Audio Coding 3
Format settings, Endianness : Big
Codec ID : A_EAC3
Duration : 42 min 16 s
Bit rate mode : Constant
Bit rate : 640 kb/s
Channel(s) : 6 channels
Channel positions : Front: L C R, Side: L R, LFE
Sampling rate : 48.0 kHz
Frame rate : 187.500 FPS (256 SPF)
Compression mode : Lossy
Stream size : 194 MiB (9%)
Language : English
Service kind : Complete Main
Default : Yes
Forced : No

Text
ID : 3
Format : UTF-8
Codec ID : S_TEXT/UTF8
Codec ID/Info : UTF-8 Plain Text
Duration : 41 min 0 s
Bit rate : 74 b/s
Count of elements : 735
Stream size : 22.4 KiB (0%)
Title : SDH
Language : English
Default : No
Forced : No

Menu
00:00:00.000 : en:Studio Logo
00:00:06.000 : en:Previously On
00:01:48.000 : en:Opening Credits
00:02:48.000 : en:Scene 4
00:14:56.000 : en:Scene 5
00:27:25.000 : en:Scene 6
00:41:14.000 : en:End Credits





The Expanse S03E10


The Expanse S03E10


The Expanse S03E10


The Expanse S03E10


The Expanse S03E10

All episodes