The Flash S04E18

Posted By: Tavaz
1080p (FullHD) / WEB-DL IMDb
The Flash S04E18

The Flash S04E18
WEB-DL | MKV | 1920x1080 | Italian | H264 @ 5041 kbps | AC-3 @ 192 kbps | 40 min 38 s | 1.49 GiB
Genre: Dramma

Barry Allen, un assistente di scena del crimine legale per il dipartimento di polizia di Central City, viene colpito da un fulmine durante un temporale generatosi dall'esplosione di un acceleratore di particelle dello STAR Labs. In coma per nove mesi, Barry si risveglia nello STAR Labs, sotto le cure del suo idolo scienziato, il dottor Harrison Wells, insieme ai suoi collaboratori, la dottoressa Caitlin Snow e Cisco Ramon. Barry impara rapidamente che può muoversi a velocità straordinarie, e che oltre a lui ci sono altri "metaumani" creati dall'esplosione.

The.Flash.2014.4x18.Scacco.Matto.ITA.1080p.WEBMux.x264-NovaRip.mkv (1.5 GB)



General
Unique ID : 299599974715451072950093894137609126259 (0xE164DB3421AE6BFA4135A0A263C70173)
Complete name : ./The.Flash.2014.4x18.Scacco.Matto.ITA.1080p.WEBMux.x264-NovaRip.mkv
Format : Matroska
Format version : Version 2
File size : 1.49 GiB
Duration : 40 min 38 s
Overall bit rate : 5 235 kb/s
Encoded date : UTC 2018-07-12 19:12:39
Writing application : mkvmerge v8.5.2 ('Crosses') 64bit
Writing library : libebml v1.3.3 + libmatroska v1.4.4

Video
ID : 1
Format : AVC
Format/Info : Advanced Video Codec
Format profile : High@L4.1
Format settings : CABAC / 4 Ref Frames
Format settings, CABAC : Yes
Format settings, RefFrames : 4 frames
Codec ID : V_MPEG4/ISO/AVC
Duration : 40 min 38 s
Bit rate : 5 041 kb/s
Width : 1 920 pixels
Height : 1 080 pixels
Display aspect ratio : 16:9
Frame rate mode : Constant
Frame rate : 25.000 FPS
Original frame rate : 23.976 (24000/1001) FPS
Color space : YUV
Chroma subsampling : 4:2:0
Bit depth : 8 bits
Scan type : Progressive
Bits/(Pixel*Frame) : 0.097
Stream size : 1.43 GiB (96%)
Writing library : x264 core 155 r2893 b00bcaf
Encoding settings : cabac=1 / ref=4 / deblock=1:-2:-2 / analyse=0x3:0x133 / me=umh / subme=7 / psy=1 / psy_rd=1.00:0.00 / mixed_ref=1 / me_range=16 / chroma_me=1 / trellis=2 / 8x8dct=1 / cqm=0 / deadzone=21,11 / fast_pskip=0 / chroma_qp_offset=-2 / threads=6 / lookahead_threads=1 / sliced_threads=0 / nr=0 / decimate=1 / interlaced=0 / bluray_compat=0 / constrained_intra=0 / bframes=5 / b_pyramid=2 / b_adapt=2 / b_bias=0 / direct=3 / weightb=1 / open_gop=0 / weightp=2 / keyint=250 / keyint_min=23 / scenecut=40 / intra_refresh=0 / rc_lookahead=40 / rc=crf / mbtree=1 / crf=20.0 / qcomp=0.60 / qpmin=0 / qpmax=69 / qpstep=4 / ip_ratio=1.40 / aq=1:1.00
Language : English
Default : Yes
Forced : Yes

Audio
ID : 2
Format : AC-3
Format/Info : Audio Coding 3
Format settings, Endianness : Big
Codec ID : A_AC3
Duration : 40 min 37 s
Bit rate mode : Constant
Bit rate : 192 kb/s
Channel(s) : 2 channels
Channel positions : Front: L R
Sampling rate : 48.0 kHz
Frame rate : 31.250 FPS (1536 SPF)
Bit depth : 16 bits
Compression mode : Lossy
Stream size : 55.8 MiB (4%)
Title : ITA
Language : Italian
Service kind : Complete Main
Default : Yes
Forced : Yes





The Flash S04E18


The Flash S04E18


The Flash S04E18


The Flash S04E18


The Flash S04E18

All episodes