The Flash S04E16

Posted By: Tavaz
SD / WEB-DL IMDb
The Flash S04E16

The Flash S04E16
WEB-DL | MKV | 720x480 | English | H264 @ 1126 kbps | E-AC-3 @ 192 kbps | 40 min 31 s | 383 MiB
Subtitles: Dutch
Genre: Drama

After a particle accelerator causes a freak storm, CSI Investigator Barry Allen is struck by lightning and falls into a coma. Months later he awakens with the power of super speed, granting him the ability to move through Central City like an unseen guardian angel. Though initially excited by his newfound powers, Barry is shocked to discover he is not the only "meta-human" who was created in the wake of the accelerator explosion – and not everyone is using their new powers for good. Barry partners with S.T.A.R. Labs and dedicates his life to protect the innocent. For now, only a few close friends and associates know that Barry is literally the fastest man alive, but it won't be long before the world learns what Barry Allen has become…The Flash.

The.Flash.S04E16.WEB-DL.DD5.1.H265-SUM.mkv (382.6 MB)



General
Unique ID : 302021759303557550474137456197940448933 (0xE33746670CE3D1D6FBC11EC2EA528EA5)
Complete name : ./The.Flash.S04E16.WEB-DL.DD5.1.H265-SUM.mkv
Format : Matroska
Format version : Version 4 / Version 2
File size : 383 MiB
Duration : 40 min 31 s
Overall bit rate : 1 320 kb/s
Encoded date : UTC 2018-03-14 12:36:45
Writing application : mkvmerge v21.0.0 ('Tardigrades Will Inherit The Earth') 64-bit
Writing library : libebml v1.3.5 + libmatroska v1.4.8

Video
ID : 2
Format : AVC
Format/Info : Advanced Video Codec
Format profile : Main@L3
Format settings : CABAC / 2 Ref Frames
Format settings, CABAC : Yes
Format settings, RefFrames : 2 frames
Format settings, GOP : M=1, N=24
Codec ID : V_MPEG4/ISO/AVC
Duration : 40 min 30 s
Bit rate : 1 126 kb/s
Width : 720 pixels
Height : 480 pixels
Display aspect ratio : 16:9
Frame rate mode : Constant
Frame rate : 23.976 (23976/1000) FPS
Color space : YUV
Chroma subsampling : 4:2:0
Bit depth : 8 bits
Scan type : Progressive
Bits/(Pixel*Frame) : 0.136
Stream size : 326 MiB (85%)
Default : Yes
Forced : No

Audio
ID : 1
Format : E-AC-3
Format/Info : Enhanced Audio Coding 3
Format settings, Endianness : Big
Codec ID : A_EAC3
Duration : 40 min 31 s
Bit rate mode : Constant
Bit rate : 192 kb/s
Channel(s) : 6 channels
Channel positions : Front: L C R, Side: L R, LFE
Sampling rate : 48.0 kHz
Frame rate : 187.500 FPS (256 SPF)
Compression mode : Lossy
Delay relative to video : -42 ms
Stream size : 55.6 MiB (15%)
Service kind : Complete Main
Default : Yes
Forced : No

Text
ID : 3
Format : UTF-8
Codec ID : S_TEXT/UTF8
Codec ID/Info : UTF-8 Plain Text
Duration : 40 min 19 s
Bit rate : 82 b/s
Count of elements : 843
Stream size : 24.3 KiB (0%)
Language : Dutch
Default : Yes
Forced : No





The Flash S04E16


The Flash S04E16


The Flash S04E16


The Flash S04E16


The Flash S04E16

All episodes