The Originals S04E11

Posted By: Tavaz
SD / BluRay Remux IMDb
The Originals S04E11

The Originals S04E11
BluRay Remux | MKV | 720x404 | Italian | H264 @ 1042 kbps | AAC @ 111 kbps | 40 min 45 s | 350 MiB
Genre: Dramma, Mistero

Niklaus Mikaelson è l'ibrido appartenente alla famiglia dei Vampiri Originali che si trasferisce dalla cittadina di Mystic Falls (Virginia) a New Orleans, città che lui e i suoi fratelli contribuirono a costruire ma che poi abbandonarono per fuggire da loro padre, che gli dava la caccia. Con il suo ritorno, Klaus scopre che Marcel, vampiro che lui stesso trasformò secoli prima, detiene il controllo del quartiere francese della città e di tutte le creature sovrannaturali che lo abitano, comprese le streghe che non possono praticare la magia senza il suo permesso. Queste ultime, guidate dalla giovane strega Sophie Deveraux, vogliono stipulare un patto con Klaus: se lui le aiuterà ad eliminare Marcel loro proteggeranno Hayley, la giovane licantropa che aspetta una figlia da lui. Klaus, spinto dalla responsabilità di padre e dalla voglia di rubare il controllo della città a Marcel e convinto dal fratello maggiore Elijah, accetta il patto e decide di rimanere a New Orleans. Mesi dopo, anche Rebekah, la sorella di Klaus ed Elijah, giunge in città e si ricongiunge con i suoi fratelli.

The.Originals.4x11.Uno.Spirito.Che.Non.Sara.Piegato.ITA.BDMux.x264-NovaRip.mkv (350.0 MB)



General
Unique ID : 211417549262270470470016135869432129657 (0x9F0D89F4A678CABE7198C86366FCE879)
Complete name : ./The.Originals.4x11.Uno.Spirito.Che.Non.Sara.Piegato.ITA.BDMux.x264-NovaRip.mkv
Format : Matroska
Format version : Version 2
File size : 350 MiB
Duration : 40 min 45 s
Overall bit rate : 1 200 kb/s
Encoded date : UTC 2018-01-13 18:58:01
Writing application : mkvmerge v8.5.2 ('Crosses') 64bit
Writing library : libebml v1.3.3 + libmatroska v1.4.4

Video
ID : 1
Format : AVC
Format/Info : Advanced Video Codec
Format profile : High@L3.1
Format settings : CABAC / 6 Ref Frames
Format settings, CABAC : Yes
Format settings, RefFrames : 6 frames
Codec ID : V_MPEG4/ISO/AVC
Duration : 40 min 45 s
Bit rate : 1 042 kb/s
Width : 720 pixels
Height : 404 pixels
Display aspect ratio : 16:9
Frame rate mode : Constant
Frame rate : 25.000 FPS
Original frame rate : 23.976 (24000/1001) FPS
Color space : YUV
Chroma subsampling : 4:2:0
Bit depth : 8 bits
Scan type : Progressive
Bits/(Pixel*Frame) : 0.143
Stream size : 317 MiB (90%)
Writing library : x264 core 148 r2762 90a61ec
Encoding settings : cabac=1 / ref=6 / deblock=1:-2:-2 / analyse=0x3:0x133 / me=umh / subme=7 / psy=1 / psy_rd=1.00:0.00 / mixed_ref=1 / me_range=16 / chroma_me=1 / trellis=2 / 8x8dct=1 / cqm=0 / deadzone=21,11 / fast_pskip=0 / chroma_qp_offset=-2 / threads=6 / lookahead_threads=1 / sliced_threads=0 / nr=0 / decimate=1 / interlaced=0 / bluray_compat=0 / constrained_intra=0 / bframes=5 / b_pyramid=2 / b_adapt=2 / b_bias=0 / direct=3 / weightb=1 / open_gop=0 / weightp=2 / keyint=250 / keyint_min=23 / scenecut=40 / intra_refresh=0 / rc_lookahead=40 / rc=2pass / mbtree=1 / bitrate=1042 / ratetol=1.0 / qcomp=0.60 / qpmin=0 / qpmax=69 / qpstep=4 / cplxblur=20.0 / qblur=0.5 / ip_ratio=1.40 / aq=1:1.00
Language : English
Default : Yes
Forced : Yes

Audio
ID : 2
Format : AAC
Format/Info : Advanced Audio Codec
Format profile : LC
Codec ID : A_AAC-2
Duration : 40 min 45 s
Bit rate : 112 kb/s
Channel(s) : 2 channels
Channel positions : Front: L R
Sampling rate : 48.0 kHz
Frame rate : 46.875 FPS (1024 SPF)
Compression mode : Lossy
Delay relative to video : 9 ms
Stream size : 32.6 MiB (9%)
Title : ITA
Language : Italian
Default : Yes
Forced : Yes





The Originals S04E11


The Originals S04E11


The Originals S04E11


The Originals S04E11


The Originals S04E11

All episodes