The Path S03E11

Posted By: Tavaz
720p (HD) / WEB-DL IMDb
The Path S03E11

The Path S03E11
WEB-DL | MKV | 1280x720 | English | H264 @ 1619 kbps | AAC @ 63 kbps | 49 min 27 s | 596 MiB
Subtitles: Spanish, English
Genre: Drama, Mystery

The Path explores the unknown and mysterious world of the cult-like Meyerist Movement in upstate New York. At the center of the movement lies Eddie, a conflicted husband; Sarah, his devoted wife; and Cal, an ambitious leader. We follow each as they contend with deep issues involving relationships, faith, and power.

9842cf96e2b749bd98418e2bbf6368eb.mkv (596.2 MB)



General
Unique ID : 241329769857437468487868265429526181248 (0xB58E6C4B4DE451C6A0287869FA64F580)
Complete name : ./9842cf96e2b749bd98418e2bbf6368eb.mkv
Format : Matroska
Format version : Version 4 / Version 2
File size : 596 MiB
Duration : 49 min 27 s
Overall bit rate : 1 686 kb/s
Encoded date : UTC 2018-03-14 12:12:05
Writing application : mkvmerge v9.5.0 ('Quiet Fire') 32bit
Writing library : libebml v1.3.4 + libmatroska v1.4.5

Video
ID : 1
Format : AVC
Format/Info : Advanced Video Codec
Format profile : High@L3.1
Format settings : CABAC / 5 Ref Frames
Format settings, CABAC : Yes
Format settings, RefFrames : 5 frames
Codec ID : V_MPEG4/ISO/AVC
Duration : 49 min 27 s
Bit rate : 1 620 kb/s
Width : 1 280 pixels
Height : 720 pixels
Display aspect ratio : 16:9
Frame rate mode : Constant
Frame rate : 23.976 FPS
Color space : YUV
Chroma subsampling : 4:2:0
Bit depth : 8 bits
Scan type : Progressive
Bits/(Pixel*Frame) : 0.073
Stream size : 573 MiB (96%)
Default : Yes
Forced : No

Audio
ID : 2
Format : AAC
Format/Info : Advanced Audio Codec
Format profile : HE-AAC / LC
Format settings : Explicit
Codec ID : A_AAC-2
Duration : 49 min 27 s
Bit rate : 64.0 kb/s
Channel(s) : 2 channels
Channel positions : Front: L R
Sampling rate : 48.0 kHz / 24.0 kHz
Frame rate : 23.438 FPS (1024 SPF)
Compression mode : Lossy
Stream size : 22.6 MiB (4%)
Default : Yes
Forced : No

Text #1
ID : 3
Format : UTF-8
Codec ID : S_TEXT/UTF8
Codec ID/Info : UTF-8 Plain Text
Duration : 49 min 18 s
Bit rate : 76 b/s
Count of elements : 971
Stream size : 27.6 KiB (0%)
Language : English
Default : No
Forced : No

Text #2
ID : 4
Format : UTF-8
Codec ID : S_TEXT/UTF8
Codec ID/Info : UTF-8 Plain Text
Duration : 48 min 38 s
Bit rate : 70 b/s
Count of elements : 890
Stream size : 25.2 KiB (0%)
Language : Spanish
Default : No
Forced : No

Menu
00:00:00.000 : en:Chapter 1
00:10:12.041 : en:Chapter 2
00:21:51.208 : en:Chapter 3
00:34:45.333 : en:Chapter 4
00:42:07.791 : en:Chapter 5





The Path S03E11


The Path S03E11


The Path S03E11


The Path S03E11


The Path S03E11

All episodes