The Path S03E11

Posted By: Tavaz
1080p (FullHD) / WEB-DL IMDb
The Path S03E11

The Path S03E11
WEB-DL | MKV | 1920x1080 | English | H264 @ 4079 kbps | AAC @ 63 kbps | 49 min 27 s | 1.43 GiB
Subtitles: Spanish, English
Genre: Drama, Mystery

The Path explores the unknown and mysterious world of the cult-like Meyerist Movement in upstate New York. At the center of the movement lies Eddie, a conflicted husband; Sarah, his devoted wife; and Cal, an ambitious leader. We follow each as they contend with deep issues involving relationships, faith, and power.

657aa2c9ad034d359ee168a8801c5961.mkv (1.4 GB)



General
Unique ID : 246534899221660077364158556951657023764 (0xB978E4FC4C0FBA81AE25A1BD307F8914)
Complete name : ./657aa2c9ad034d359ee168a8801c5961.mkv
Format : Matroska
Format version : Version 4 / Version 2
File size : 1.43 GiB
Duration : 49 min 27 s
Overall bit rate : 4 145 kb/s
Encoded date : UTC 2018-03-14 12:07:33
Writing application : mkvmerge v9.5.0 ('Quiet Fire') 32bit
Writing library : libebml v1.3.4 + libmatroska v1.4.5

Video
ID : 1
Format : AVC
Format/Info : Advanced Video Codec
Format profile : High@L4
Format settings : CABAC / 4 Ref Frames
Format settings, CABAC : Yes
Format settings, RefFrames : 4 frames
Codec ID : V_MPEG4/ISO/AVC
Duration : 49 min 27 s
Bit rate : 4 079 kb/s
Width : 1 920 pixels
Height : 1 080 pixels
Display aspect ratio : 16:9
Frame rate mode : Constant
Frame rate : 23.976 FPS
Color space : YUV
Chroma subsampling : 4:2:0
Bit depth : 8 bits
Scan type : Progressive
Bits/(Pixel*Frame) : 0.082
Stream size : 1.41 GiB (98%)
Default : Yes
Forced : No

Audio
ID : 2
Format : AAC
Format/Info : Advanced Audio Codec
Format profile : HE-AAC / LC
Format settings : Explicit
Codec ID : A_AAC-2
Duration : 49 min 27 s
Bit rate : 64.0 kb/s
Channel(s) : 2 channels
Channel positions : Front: L R
Sampling rate : 48.0 kHz / 24.0 kHz
Frame rate : 23.438 FPS (1024 SPF)
Compression mode : Lossy
Stream size : 22.6 MiB (2%)
Default : Yes
Forced : No

Text #1
ID : 3
Format : UTF-8
Codec ID : S_TEXT/UTF8
Codec ID/Info : UTF-8 Plain Text
Duration : 49 min 18 s
Bit rate : 76 b/s
Count of elements : 971
Stream size : 27.6 KiB (0%)
Language : English
Default : No
Forced : No

Text #2
ID : 4
Format : UTF-8
Codec ID : S_TEXT/UTF8
Codec ID/Info : UTF-8 Plain Text
Duration : 48 min 38 s
Bit rate : 70 b/s
Count of elements : 890
Stream size : 25.2 KiB (0%)
Language : Spanish
Default : No
Forced : No

Menu
00:00:00.000 : en:Chapter 1
00:10:12.041 : en:Chapter 2
00:21:51.208 : en:Chapter 3
00:34:45.333 : en:Chapter 4
00:42:07.791 : en:Chapter 5





The Path S03E11


The Path S03E11


The Path S03E11


The Path S03E11


The Path S03E11

All episodes