The Quad S02E07

Posted By: Tavaz
720p (HD) / WEBRip IMDb
The Quad S02E07

The Quad S02E07
WEBRip | MKV | 1280x720 | English | H264 @ 1923 kbps | AAC @ 127 kbps | 40 min 59 s | 602 MiB
Genre: Drama

Dr. Eva Fletcher is the newly-elected President of the fictional Georgia A&M University. Upon arriving, Eva is charged with saving the prestigious HBCU from bankruptcy and her twenty-year marriage from crumbling while managing a tumultuous relationship with her rebellious only daughter. A diverse group of freshman also promises to keep Eva's hands full.

557a7464e96742c7a6bc8c54da09e2c5.mkv (602.5 MB)



General
Unique ID : 93997644236293363228251446401081972201 (0x46B749AB88BEB72736270CE94F7A95E9)
Complete name : ./557a7464e96742c7a6bc8c54da09e2c5.mkv
Format : Matroska
Format version : Version 4 / Version 2
File size : 602 MiB
Duration : 40 min 59 s
Overall bit rate : 2 055 kb/s
Encoded date : UTC 2018-03-14 12:09:56
Writing application : mkvmerge v20.0.0 ('I Am The Sun') 64-bit
Writing library : libebml v1.3.5 + libmatroska v1.4.8

Video
ID : 1
Format : AVC
Format/Info : Advanced Video Codec
Format profile : High@L4
Format settings : CABAC / 4 Ref Frames
Format settings, CABAC : Yes
Format settings, RefFrames : 4 frames
Codec ID : V_MPEG4/ISO/AVC
Duration : 40 min 59 s
Bit rate : 1 924 kb/s
Width : 1 280 pixels
Height : 720 pixels
Display aspect ratio : 16:9
Frame rate mode : Variable
Frame rate : 23.976 (23976/1000) FPS
Color space : YUV
Chroma subsampling : 4:2:0
Bit depth : 8 bits
Scan type : Progressive
Bits/(Pixel*Frame) : 0.087
Stream size : 564 MiB (94%)
Writing library : x264 core 148
Encoding settings : cabac=1 / ref=4 / deblock=1:0:0 / analyse=0x3:0x113 / me=umh / subme=10 / psy=1 / psy_rd=1.00:0.15 / mixed_ref=1 / me_range=16 / chroma_me=1 / trellis=2 / 8x8dct=1 / cqm=0 / deadzone=21,11 / fast_pskip=1 / chroma_qp_offset=-3 / threads=14 / lookahead_threads=4 / sliced_threads=0 / nr=0 / decimate=1 / interlaced=0 / bluray_compat=0 / constrained_intra=0 / bframes=3 / b_pyramid=0 / b_adapt=2 / b_bias=0 / direct=3 / weightb=1 / open_gop=0 / weightp=2 / keyint=48 / keyint_min=4 / scenecut=0 / intra_refresh=0 / rc_lookahead=48 / rc=crf / mbtree=1 / crf=19.0 / qcomp=0.75 / qpmin=10 / qpmax=51 / qpstep=4 / vbv_maxrate=3000 / vbv_bufsize=6000 / crf_max=0.0 / nal_hrd=none / filler=0 / ip_ratio=1.40 / aq=1:0.80
Default : Yes
Forced : No

Audio
ID : 2
Format : AAC
Format/Info : Advanced Audio Codec
Format profile : LC
Codec ID : A_AAC-2
Duration : 40 min 59 s
Bit rate : 128 kb/s
Channel(s) : 2 channels
Channel positions : Front: L R
Sampling rate : 48.0 kHz
Frame rate : 46.875 FPS (1024 SPF)
Compression mode : Lossy
Delay relative to video : -41 ms
Stream size : 37.5 MiB (6%)
Default : Yes
Forced : No





The Quad S02E07


The Quad S02E07


The Quad S02E07


The Quad S02E07


The Quad S02E07

All episodes