X-Files S01E03

Posted By: Tavaz
1080p (FullHD) / WEB-DL IMDb
X-Files S01E03

X-Files S01E03
WEB-DL | MKV | 1920x1080 | Italian | H264 @ 4882 kbps | AC-3 @ 384 kbps | 41 min 45 s | 1.54 GiB
Subtitles: Italian
Genre: Dramma, Mistero

X-Files è una serie fantascientifica americana che descrive la riapertura dei casi irrisolti e dimenticati in archivio perchè collegati a fenomeni paranormali da parte dei due investigatori del FBI Fox Mulder e Dana Scully.

Scully è la scettica, meticolosa e scientifica agente assegnata per controbilanciare (e smontare) il lavoro dell'agente Molder e le sue scoperte spesso scomode, così da poterlo riassegnare ai casi "normali".



The.X-Files.11x03.Doppioni.ITA.1080p.WEBMux.DD5.1.x264-NovaRip.mkv (1.5 GB)



General
Unique ID : 271554430913031326880613075321630115461 (0xCC4B7B22FD421657885197540CD24685)
Complete name : ./The.X-Files.11x03.Doppioni.ITA.1080p.WEBMux.DD5.1.x264-NovaRip.mkv
Format : Matroska
Format version : Version 2
File size : 1.54 GiB
Duration : 41 min 45 s
Overall bit rate : 5 269 kb/s
Encoded date : UTC 2018-02-12 21:48:21
Writing application : mkvmerge v8.5.2 ('Crosses') 64bit
Writing library : libebml v1.3.3 + libmatroska v1.4.4

Video
ID : 1
Format : AVC
Format/Info : Advanced Video Codec
Format profile : High@L4.1
Format settings : CABAC / 4 Ref Frames
Format settings, CABAC : Yes
Format settings, RefFrames : 4 frames
Format settings, GOP : M=2, N=15
Codec ID : V_MPEG4/ISO/AVC
Duration : 41 min 45 s
Bit rate : 4 883 kb/s
Width : 1 920 pixels
Height : 1 080 pixels
Display aspect ratio : 16:9
Frame rate mode : Constant
Frame rate : 25.000 FPS
Color space : YUV
Chroma subsampling : 4:2:0
Bit depth : 8 bits
Scan type : Progressive
Bits/(Pixel*Frame) : 0.094
Stream size : 1.42 GiB (93%)
Language : English
Default : Yes
Forced : Yes

Audio
ID : 2
Format : AC-3
Format/Info : Audio Coding 3
Format settings, Endianness : Big
Codec ID : A_AC3
Duration : 41 min 44 s
Bit rate mode : Constant
Bit rate : 384 kb/s
Channel(s) : 6 channels
Channel positions : Front: L C R, Side: L R, LFE
Sampling rate : 48.0 kHz
Frame rate : 31.250 FPS (1536 SPF)
Bit depth : 16 bits
Compression mode : Lossy
Stream size : 115 MiB (7%)
Title : ITA
Language : Italian
Service kind : Complete Main
Default : Yes
Forced : Yes

Text
ID : 3
Format : UTF-8
Codec ID : S_TEXT/UTF8
Codec ID/Info : UTF-8 Plain Text
Duration : 14 min 42 s
Bit rate : 1 b/s
Count of elements : 3
Stream size : 132 Bytes (0%)
Title : ITA - Forced
Language : Italian
Default : Yes
Forced : Yes





X-Files S01E03


X-Files S01E03


X-Files S01E03


X-Files S01E03


X-Files S01E03

All episodes