The Young and the Restless S45E06

Posted By: Tavaz
1080p (FullHD) / WEBRip IMDb
The Young and the Restless S45E06

The Young and the Restless S45E06
WEB-DL | MKV | 1920x1080 | English | H264 @ 8178 kbps | E-AC-3 @ 224 kbps | 36 min 45 s | 2.15 GiB
Subtitles: English

The rivalries, romances, hopes and fears of the residents of the fictional Midwestern metropolis, Genoa City. The lives and loves of a wide variety of characters mingle through the generations, dominated by the Newman, Abbott, Baldwin and Winters families.

72c08f9f64c8475f8d0ef01519257fed.mkv (2.2 GB)



General
Unique ID : 162040297531048249572190460955649109629 (0x79E7D37CAE97595C1BE037721A1BEE7D)
Complete name : ./72c08f9f64c8475f8d0ef01519257fed.mkv
Format : Matroska
Format version : Version 4 / Version 2
File size : 2.15 GiB
Duration : 36 min 45 s
Overall bit rate mode : Variable
Overall bit rate : 8 381 kb/s
Encoded date : UTC 2018-01-12 07:05:30
Writing application : mkvmerge v19.0.0 ('Brave Captain') 64-bit
Writing library : libebml v1.3.5 + libmatroska v1.4.8

Video
ID : 1
Format : AVC
Format/Info : Advanced Video Codec
Format profile : High@L4
Format settings : CABAC / 4 Ref Frames
Format settings, CABAC : Yes
Format settings, RefFrames : 4 frames
Codec ID : V_MPEG4/ISO/AVC
Duration : 36 min 39 s
Bit rate mode : Variable
Bit rate : 8 178 kb/s
Maximum bit rate : 15.0 Mb/s
Width : 1 920 pixels
Height : 1 080 pixels
Display aspect ratio : 16:9
Frame rate mode : Constant
Frame rate : 29.970 (30000/1001) FPS
Color space : YUV
Chroma subsampling : 4:2:0
Bit depth : 8 bits
Scan type : Progressive
Bits/(Pixel*Frame) : 0.132
Stream size : 2.09 GiB (97%)
Default : Yes
Forced : No
Color range : Limited
Color primaries : BT.709
Transfer characteristics : BT.709
Matrix coefficients : BT.709

Audio
ID : 2
Format : E-AC-3
Format/Info : Enhanced Audio Coding 3
Format settings, Endianness : Big
Codec ID : A_EAC3
Duration : 36 min 39 s
Bit rate mode : Constant
Bit rate : 224 kb/s
Channel(s) : 2 channels
Channel positions : Front: L R
Sampling rate : 48.0 kHz
Frame rate : 187.500 FPS (256 SPF)
Compression mode : Lossy
Stream size : 58.7 MiB (3%)
Language : English
Service kind : Complete Main
Default : Yes
Forced : No

Text
ID : 3
Format : UTF-8
Codec ID : S_TEXT/UTF8
Codec ID/Info : UTF-8 Plain Text
Duration : 36 min 32 s
Bit rate : 107 b/s
Count of elements : 847
Stream size : 28.8 KiB (0%)
Language : English
Default : No
Forced : No





The Young and the Restless S45E06


The Young and the Restless S45E06


The Young and the Restless S45E06


The Young and the Restless S45E06


The Young and the Restless S45E06

All episodes