Uma Musume Pretty Derby S01E13

Posted By: Tavaz
1080p (FullHD) / WEBRip IMDb
Uma Musume Pretty Derby S01E13

Uma Musume Pretty Derby S01E13
WEBRip | MKV | 1920x1080 | Japanese | H264 @ 5259 kbps | AAC @ 128 kbps | 23 min 55 s | 922 MiB
Subtitles: Portuguese, Spanish, English
Genre: Animation

In a world very much like our own, great race horses of the past have a chance to be reborn as "horse girls"—girls with the ears and tails of horses as well as their speed and endurance. The best of these horse girls go to train at Tokyo's Tracen Academy, hopefully moving on to fame and fortune as both racers and idols.

Special Week, a high school horse girl from the countryside, has just transferred to Tracen, and she's determined to fulfill her promise to her mother to become the best horse girl in Japan. On her way to school, she takes a pit stop at the race track and instantly falls in love with Silence Suzuka's style, becoming determined to race on the same team as her.

a2d17c6d7f4f41a1bc66b30e8be6ea2c.mkv (922.2 MB)



General
Unique ID : 204705489640110253115497467228936565856 (0x9A00D7DDC781DC21A95FBD2DC0357460)
Complete name : ./a2d17c6d7f4f41a1bc66b30e8be6ea2c.mkv
Format : Matroska
Format version : Version 4 / Version 2
File size : 922 MiB
Duration : 23 min 55 s
Overall bit rate : 5 390 kb/s
Movie name : Umamusume- Pretty Derby Episode 13 - Watch on Crunchyroll
Encoded date : UTC 2018-07-06 19:39:10
Writing application : mkvmerge v12.0.0 ('Trust / Lust') 64bit
Writing library : libebml v1.3.4 + libmatroska v1.4.5

Video
ID : 1
Format : AVC
Format/Info : Advanced Video Codec
Format profile : High@L4
Format settings : CABAC / 4 Ref Frames
Format settings, CABAC : Yes
Format settings, RefFrames : 4 frames
Codec ID : V_MPEG4/ISO/AVC
Duration : 23 min 55 s
Bit rate : 5 259 kb/s
Width : 1 920 pixels
Height : 1 080 pixels
Display aspect ratio : 16:9
Frame rate mode : Constant
Frame rate : 23.976 (24000/1001) FPS
Color space : YUV
Chroma subsampling : 4:2:0
Bit depth : 8 bits
Scan type : Progressive
Bits/(Pixel*Frame) : 0.106
Stream size : 900 MiB (98%)
Writing library : x264 core 142
Encoding settings : cabac=1 / ref=4 / deblock=1:1:1 / analyse=0x3:0x113 / me=umh / subme=8 / psy=1 / psy_rd=0.40:0.00 / mixed_ref=1 / me_range=16 / chroma_me=1 / trellis=1 / 8x8dct=1 / cqm=0 / deadzone=21,11 / fast_pskip=1 / chroma_qp_offset=-2 / threads=12 / lookahead_threads=2 / sliced_threads=0 / nr=0 / decimate=1 / interlaced=0 / bluray_compat=0 / constrained_intra=0 / bframes=3 / b_pyramid=2 / b_adapt=2 / b_bias=0 / direct=3 / weightb=1 / open_gop=0 / weightp=2 / keyint=48 / keyint_min=24 / scenecut=40 / intra_refresh=0 / rc_lookahead=48 / rc=crf / mbtree=1 / crf=15.0 / qcomp=0.60 / qpmin=0 / qpmax=69 / qpstep=4 / vbv_maxrate=8000 / vbv_bufsize=12000 / crf_max=0.0 / nal_hrd=none / filler=0 / ip_ratio=1.40 / aq=1:0.60
Language : Japanese
Default : Yes
Forced : No

Audio
ID : 2
Format : AAC
Format/Info : Advanced Audio Codec
Format profile : LC
Codec ID : A_AAC-2
Duration : 23 min 55 s
Bit rate : 128 kb/s
Channel(s) : 2 channels
Channel positions : Front: L R
Sampling rate : 44.1 kHz
Frame rate : 43.066 FPS (1024 SPF)
Compression mode : Lossy
Delay relative to video : -83 ms
Stream size : 21.9 MiB (2%)
Language : Japanese
Default : Yes
Forced : No

Text #1
ID : 3
Format : ASS
Codec ID : S_TEXT/ASS
Codec ID/Info : Advanced Sub Station Alpha
Duration : 22 min 12 s
Bit rate : 154 b/s
Count of elements : 374
Compression mode : Lossless
Stream size : 25.0 KiB (0%)
Title : [English (US)]
Language : English
Default : Yes
Forced : No

Text #2
ID : 4
Format : ASS
Codec ID : S_TEXT/ASS
Codec ID/Info : Advanced Sub Station Alpha
Duration : 21 min 58 s
Bit rate : 152 b/s
Count of elements : 366
Compression mode : Lossless
Stream size : 24.5 KiB (0%)
Title : [Espanol]
Language : Spanish
Default : No
Forced : No

Text #3
ID : 5
Format : ASS
Codec ID : S_TEXT/ASS
Codec ID/Info : Advanced Sub Station Alpha
Duration : 22 min 12 s
Bit rate : 155 b/s
Count of elements : 372
Compression mode : Lossless
Stream size : 25.3 KiB (0%)
Title : [Portugues (Brasil)]
Language : Portuguese
Default : No
Forced : No





Uma Musume Pretty Derby S01E13


Uma Musume Pretty Derby S01E13


Uma Musume Pretty Derby S01E13


Uma Musume Pretty Derby S01E13


Uma Musume Pretty Derby S01E13

All episodes