Unikitty S01E11

Posted By: Tavaz
720p (HD) / HDTV IMDb
Unikitty S01E11

Unikitty S01E11
HDTV | MKV | 1280x720 | English | H264 @ 2244 kbps | AC-3 @ 448 kbps | 10 min 45 s | 207 MiB
Subtitles: English

None

08ebecc9032b45b0a693e1905e60a725.mkv (207.2 MB)



General
Unique ID : 238501254577949816962492429573474882773 (0xB36DABB952C620259565BBF16CA614D5)
Complete name : ./08ebecc9032b45b0a693e1905e60a725.mkv
Format : Matroska
Format version : Version 4 / Version 2
File size : 207 MiB
Duration : 10 min 45 s
Overall bit rate : 2 694 kb/s
Encoded date : UTC 2018-01-13 01:10:12
Writing application : mkvmerge v9.7.1 ('Pandemonium') 64bit
Writing library : libebml v1.3.4 + libmatroska v1.4.5

Video
ID : 1
Format : AVC
Format/Info : Advanced Video Codec
Format profile : High@L4.1
Format settings : CABAC / 9 Ref Frames
Format settings, CABAC : Yes
Format settings, RefFrames : 9 frames
Codec ID : V_MPEG4/ISO/AVC
Duration : 10 min 45 s
Bit rate : 2 244 kb/s
Width : 1 280 pixels
Height : 720 pixels
Display aspect ratio : 16:9
Frame rate mode : Constant
Frame rate : 23.976 (24000/1001) FPS
Color space : YUV
Chroma subsampling : 4:2:0
Bit depth : 8 bits
Scan type : Progressive
Bits/(Pixel*Frame) : 0.102
Stream size : 173 MiB (83%)
Writing library : x264 core 155 r2893 b00bcaf
Encoding settings : cabac=1 / ref=9 / deblock=1:1:1 / analyse=0x3:0x113 / me=hex / subme=8 / psy=1 / psy_rd=0.40:0.00 / mixed_ref=1 / me_range=16 / chroma_me=1 / trellis=2 / 8x8dct=1 / cqm=0 / deadzone=21,11 / fast_pskip=1 / chroma_qp_offset=-2 / threads=12 / lookahead_threads=2 / sliced_threads=0 / nr=0 / decimate=1 / interlaced=0 / bluray_compat=0 / constrained_intra=0 / bframes=5 / b_pyramid=2 / b_adapt=1 / b_bias=0 / direct=3 / weightb=1 / open_gop=0 / weightp=2 / keyint=250 / keyint_min=23 / scenecut=40 / intra_refresh=0 / rc_lookahead=50 / rc=crf / mbtree=1 / crf=18.0 / qcomp=0.60 / qpmin=0 / qpmax=69 / qpstep=4 / ip_ratio=1.40 / aq=1:0.60
Default : Yes
Forced : No

Audio
ID : 2
Format : AC-3
Format/Info : Audio Coding 3
Format settings, Endianness : Big
Codec ID : A_AC3
Duration : 10 min 45 s
Bit rate mode : Constant
Bit rate : 448 kb/s
Channel(s) : 6 channels
Channel positions : Front: L C R, Side: L R, LFE
Sampling rate : 48.0 kHz
Frame rate : 31.250 FPS (1536 SPF)
Bit depth : 16 bits
Compression mode : Lossy
Stream size : 34.5 MiB (17%)
Language : English
Service kind : Complete Main
Default : Yes
Forced : No

Text
ID : 3
Format : UTF-8
Codec ID : S_TEXT/UTF8
Codec ID/Info : UTF-8 Plain Text
Duration : 10 min 44 s
Bit rate : 99 b/s
Count of elements : 207
Stream size : 7.86 KiB (0%)
Language : English
Default : No
Forced : No





Unikitty S01E11


Unikitty S01E11


Unikitty S01E11


Unikitty S01E11


Unikitty S01E11

All episodes