VICE News Tonight S02E52

Posted By: Tavaz
720p (HD) / WEB-DL IMDb
VICE News Tonight S02E52

VICE News Tonight S02E52
WEB-DL | MKV | 1280x720 | English | H264 @ 2842 kbps | E-AC-3 @ 224 kbps | 23 min 32 s | 517 MiB
Subtitles: English

VICE News' half-hour nightly newscast. We now interrupt your regularly scheduled worldview.

VICE.News.Tonight.2018.01.02.720p.AMZN.WEB-DL.DDP2.0.H.264-monkee.mkv (516.5 MB)



General
Unique ID : 221432967919917629505520515124297357393 (0xA69670384E286422938AA8AEEC5A5851)
Complete name : ./VICE.News.Tonight.2018.01.02.720p.AMZN.WEB-DL.DDP2.0.H.264-monkee.mkv
Format : Matroska
Format version : Version 4 / Version 2
File size : 517 MiB
Duration : 23 min 32 s
Overall bit rate mode : Variable
Overall bit rate : 3 069 kb/s
Encoded date : UTC 2018-01-03 14:41:09
Writing application : mkvmerge v13.0.0 ('The Juggler') 64bit
Writing library : libebml v1.3.4 + libmatroska v1.4.5

Video
ID : 1
Format : AVC
Format/Info : Advanced Video Codec
Format profile : High@L3.1
Format settings : CABAC / 5 Ref Frames
Format settings, CABAC : Yes
Format settings, RefFrames : 5 frames
Codec ID : V_MPEG4/ISO/AVC
Duration : 23 min 32 s
Bit rate mode : Variable
Bit rate : 2 842 kb/s
Maximum bit rate : 4 500 kb/s
Width : 1 280 pixels
Height : 720 pixels
Display aspect ratio : 16:9
Frame rate mode : Constant
Frame rate : 29.970 (30000/1001) FPS
Color space : YUV
Chroma subsampling : 4:2:0
Bit depth : 8 bits
Scan type : Progressive
Bits/(Pixel*Frame) : 0.103
Stream size : 478 MiB (93%)
Default : Yes
Forced : No
Color range : Limited
Color primaries : BT.709
Transfer characteristics : BT.709
Matrix coefficients : BT.709

Audio
ID : 2
Format : E-AC-3
Format/Info : Enhanced Audio Coding 3
Format settings, Endianness : Big
Codec ID : A_EAC3
Duration : 23 min 32 s
Bit rate mode : Constant
Bit rate : 224 kb/s
Channel(s) : 2 channels
Channel positions : Front: L R
Sampling rate : 48.0 kHz
Frame rate : 187.500 FPS (256 SPF)
Compression mode : Lossy
Stream size : 37.7 MiB (7%)
Language : English
Service kind : Complete Main
Default : Yes
Forced : No

Text
ID : 3
Format : UTF-8
Codec ID : S_TEXT/UTF8
Codec ID/Info : UTF-8 Plain Text
Duration : 23 min 2 s
Bit rate : 110 b/s
Count of elements : 787
Stream size : 18.7 KiB (0%)
Language : English
Default : No
Forced : No





VICE News Tonight S02E52


VICE News Tonight S02E52


VICE News Tonight S02E52


VICE News Tonight S02E52


VICE News Tonight S02E52

All episodes