VICE News Tonight S02E99

Posted By: Tavaz
1080p (FullHD) / WEBRip IMDb
VICE News Tonight S02E99

VICE News Tonight S02E99
WEBRip | MKV | 1920x1080 | English | H264 @ 6529 kbps | E-AC-3 @ 224 kbps | 28 min 30 s | 1.35 GiB
Subtitles: English

VICE News' half-hour nightly newscast. We now interrupt your regularly scheduled worldview.

VICE.News.Tonight.2018.03.13.1080p.AMZN.WEB-DL.DDP2.0.H.264-monkee.mkv (1.3 GB)



General
Unique ID : 193187878013225430729460574522310200415 (0x9156A1C53C5F661CB8AF76C1E0690C5F)
Complete name : ./VICE.News.Tonight.2018.03.13.1080p.AMZN.WEB-DL.DDP2.0.H.264-monkee.mkv
Format : Matroska
Format version : Version 4 / Version 2
File size : 1.35 GiB
Duration : 28 min 30 s
Overall bit rate mode : Variable
Overall bit rate : 6 756 kb/s
Encoded date : UTC 2018-03-14 11:36:52
Writing application : mkvmerge v13.0.0 ('The Juggler') 64bit
Writing library : libebml v1.3.4 + libmatroska v1.4.5

Video
ID : 1
Format : AVC
Format/Info : Advanced Video Codec
Format profile : High@L4
Format settings : CABAC / 4 Ref Frames
Format settings, CABAC : Yes
Format settings, RefFrames : 4 frames
Codec ID : V_MPEG4/ISO/AVC
Duration : 28 min 30 s
Bit rate mode : Variable
Bit rate : 6 529 kb/s
Maximum bit rate : 15.0 Mb/s
Width : 1 920 pixels
Height : 1 080 pixels
Display aspect ratio : 16:9
Frame rate mode : Constant
Frame rate : 29.970 (30000/1001) FPS
Color space : YUV
Chroma subsampling : 4:2:0
Bit depth : 8 bits
Scan type : Progressive
Bits/(Pixel*Frame) : 0.105
Stream size : 1.30 GiB (97%)
Default : Yes
Forced : No
Color range : Limited
Color primaries : BT.709
Transfer characteristics : BT.709
Matrix coefficients : BT.709

Audio
ID : 2
Format : E-AC-3
Format/Info : Enhanced Audio Coding 3
Format settings, Endianness : Big
Codec ID : A_EAC3
Duration : 28 min 30 s
Bit rate mode : Constant
Bit rate : 224 kb/s
Channel(s) : 2 channels
Channel positions : Front: L R
Sampling rate : 48.0 kHz
Frame rate : 187.500 FPS (256 SPF)
Compression mode : Lossy
Stream size : 45.7 MiB (3%)
Language : English
Service kind : Complete Main
Default : Yes
Forced : No

Text #1
ID : 3
Format : UTF-8
Codec ID : S_TEXT/UTF8
Codec ID/Info : UTF-8 Plain Text
Duration : 28 min 0 s
Bit rate : 89 b/s
Count of elements : 744
Stream size : 18.5 KiB (0%)
Language : English
Default : No
Forced : No

Text #2
ID : 4
Format : UTF-8
Codec ID : S_TEXT/UTF8
Codec ID/Info : UTF-8 Plain Text
Duration : 28 min 0 s
Bit rate : 89 b/s
Count of elements : 745
Stream size : 18.5 KiB (0%)
Title : SDH
Language : English
Default : No
Forced : No





VICE News Tonight S02E99


VICE News Tonight S02E99


VICE News Tonight S02E99


VICE News Tonight S02E99


VICE News Tonight S02E99

All episodes