Westworld S01E10

Posted By: Tavaz
SD / BDRip IMDb
Westworld S01E10

Westworld S01E10
BDRip | MKV | 720x404 | French | H264 @ 721 kbps | AAC @ 123 kbps | 1 h 30 min | 546 MiB
Subtitles: French
Genre: Western, Science Fiction

A dark odyssey about the dawn of artificial consciousness and the evolution of sin. Set at the intersection of the near future and the reimagined past, it explores a world in which every human appetite, no matter how noble or depraved, can be indulged.

Westworld.S01E05.FRENCH.BDRip.x264-VENUE.mkv (369.2 MB)
Westworld.S01E10.FINAL.FRENCH.BDRip.x264-VENUE.mkv (545.5 MB)
Westworld.S01E06.FRENCH.BDRip.x264-VENUE.mkv (338.4 MB)
Westworld.S01E04.FRENCH.BDRip.x264-VENUE.mkv (403.6 MB)
Westworld.S01E08.FRENCH.BDRip.x264-VENUE.mkv (360.9 MB)
Westworld.S01E07.FRENCH.BDRip.x264-VENUE.mkv (295.2 MB)
Westworld.S01E03.FRENCH.BDRip.x264-VENUE.mkv (370.2 MB)
Westworld.S01E02.FRENCH.BDRip.x264-VENUE.mkv (377.5 MB)
Westworld.S01E01.FRENCH.BDRip.x264-VENUE.mkv (417.2 MB)
Westworld.S01E09.FRENCH.BDRip.x264-VENUE.mkv (312.4 MB)



General
Unique ID : 179688977564078238245008817479937736361 (0x872ED697FDB17BD9A3CF8FFC20F4BEA9)
Complete name : ./Westworld.S01E10.FINAL.FRENCH.BDRip.x264-VENUE.mkv
Format : Matroska
Format version : Version 2
File size : 546 MiB
Duration : 1 h 30 min
Overall bit rate : 847 kb/s
Encoded date : UTC 2017-11-03 18:01:26
Writing application : mkvmerge v10.0.0 ('To Drown In You') 64bit
Writing library : libebml v1.3.4 + libmatroska v1.4.5

Video
ID : 1
Format : AVC
Format/Info : Advanced Video Codec
Format profile : High@L3.1
Format settings : CABAC / 5 Ref Frames
Format settings, CABAC : Yes
Format settings, RefFrames : 5 frames
Codec ID : V_MPEG4/ISO/AVC
Duration : 1 h 30 min
Bit rate : 721 kb/s
Width : 720 pixels
Height : 404 pixels
Display aspect ratio : 16:9
Frame rate mode : Constant
Frame rate : 23.976 (24000/1001) FPS
Color space : YUV
Chroma subsampling : 4:2:0
Bit depth : 8 bits
Scan type : Progressive
Bits/(Pixel*Frame) : 0.103
Stream size : 464 MiB (85%)
Writing library : x264 core 152 r2851 ba24899
Encoding settings : cabac=1 / ref=5 / deblock=1:-2:-2 / analyse=0x3:0x113 / me=umh / subme=8 / psy=1 / psy_rd=1.00:0.00 / mixed_ref=1 / me_range=16 / chroma_me=1 / trellis=2 / 8x8dct=1 / cqm=0 / deadzone=21,11 / fast_pskip=1 / chroma_qp_offset=-2 / threads=13 / lookahead_threads=2 / sliced_threads=0 / nr=0 / decimate=1 / interlaced=0 / bluray_compat=0 / constrained_intra=0 / bframes=3 / b_pyramid=2 / b_adapt=1 / b_bias=0 / direct=3 / weightb=1 / open_gop=0 / weightp=2 / keyint=230 / keyint_min=23 / scenecut=40 / intra_refresh=0 / rc_lookahead=50 / rc=crf / mbtree=1 / crf=19.0 / qcomp=0.60 / qpmin=0 / qpmax=69 / qpstep=4 / vbv_maxrate=17500 / vbv_bufsize=17500 / crf_max=0.0 / nal_hrd=none / filler=0 / ip_ratio=1.40 / aq=1:0.70
Default : Yes
Forced : No
Color range : Limited
Matrix coefficients : BT.709

Audio
ID : 2
Format : AAC
Format/Info : Advanced Audio Codec
Format profile : LC
Codec ID : A_AAC-2
Duration : 1 h 30 min
Bit rate : 124 kb/s
Channel(s) : 2 channels
Channel positions : Front: L R
Sampling rate : 48.0 kHz
Frame rate : 46.875 FPS (1024 SPF)
Compression mode : Lossy
Delay relative to video : 9 ms
Stream size : 79.7 MiB (15%)
Language : French
Default : Yes
Forced : No

Text #1
ID : 3
Format : UTF-8
Codec ID : S_TEXT/UTF8
Codec ID/Info : UTF-8 Plain Text
Duration : 1 h 10 min
Bit rate : 0 b/s
Count of elements : 3
Stream size : 59.0 Bytes (0%)
Language : French
Default : Yes
Forced : Yes

Text #2
ID : 4
Format : UTF-8
Codec ID : S_TEXT/UTF8
Codec ID/Info : UTF-8 Plain Text
Duration : 1 h 28 min
Bit rate : 35 b/s
Count of elements : 834
Stream size : 22.7 KiB (0%)
Language : French
Default : No
Forced : No

Menu
00:00:00.000 : en:00:00:00.000
00:01:42.394 : en:00:01:42.394
00:07:53.473 : en:00:07:53.473
00:18:24.437 : en:00:18:24.437
00:27:07.751 : en:00:27:07.751
00:34:04.668 : en:00:34:04.668
00:47:39.231 : en:00:47:39.231
00:56:59.750 : en:00:56:59.750
01:04:46.591 : en:01:04:46.591
01:15:54.467 : en:01:15:54.467
01:21:28.092 : en:01:21:28.092
01:28:08.074 : en:01:28:08.074





Westworld S01E10


Westworld S01E10


Westworld S01E10


Westworld S01E10


Westworld S01E10

All episodes