Westworld S02E05

Posted By: Tavaz
720p (HD) / WEBRip IMDb
Westworld S02E05

Westworld S02E05
WEBRip | MKV | 1280x720 | English | H264 @ 3585 kbps | E-AC-3 @ 640 kbps | 59 min 56 s | 1.80 GiB
Subtitles: English
Genre: Science Fiction, Western

A dark odyssey about the dawn of artificial consciousness and the evolution of sin. Set at the intersection of the near future and the reimagined past, it explores a world in which every human appetite, no matter how noble or depraved, can be indulged.

a248a6747af34143aa008e8a6ceddee1.mkv (1.8 GB)



General
Unique ID : 26139395800761357888840253440972628048 (0x13AA43B6EEDFD1C203C7DD60EF792050)
Complete name : ./a248a6747af34143aa008e8a6ceddee1.mkv
Format : Matroska
Format version : Version 4 / Version 2
File size : 1.80 GiB
Duration : 59 min 56 s
Overall bit rate : 4 311 kb/s
Encoded date : UTC 2018-05-21 00:02:05
Writing application : mkvmerge v23.0.0 (master: 2421163 / deflate: e4384ad) [X86_64]
Writing library : libebml v1.3.6 + libmatroska v1.4.9

Video
ID : 1
Format : AVC
Format/Info : Advanced Video Codec
Format profile : High@L3.1
Format settings : CABAC / 5 Ref Frames
Format settings, CABAC : Yes
Format settings, RefFrames : 5 frames
Codec ID : V_MPEG4/ISO/AVC
Duration : 59 min 56 s
Bit rate : 3 585 kb/s
Width : 1 280 pixels
Height : 720 pixels
Display aspect ratio : 16:9
Frame rate mode : Constant
Frame rate : 23.976 (24000/1001) FPS
Color space : YUV
Chroma subsampling : 4:2:0
Bit depth : 8 bits
Scan type : Progressive
Bits/(Pixel*Frame) : 0.162
Stream size : 1.50 GiB (83%)
Language : English
Default : Yes
Forced : No
Color range : Limited
Color primaries : BT.709
Transfer characteristics : BT.709
Matrix coefficients : BT.709

Audio
ID : 2
Format : E-AC-3
Format/Info : Enhanced Audio Coding 3
Format settings, Endianness : Big
Codec ID : A_EAC3
Duration : 59 min 56 s
Bit rate mode : Constant
Bit rate : 640 kb/s
Channel(s) : 6 channels
Channel positions : Front: L C R, Side: L R, LFE
Sampling rate : 48.0 kHz
Frame rate : 187.500 FPS (256 SPF)
Compression mode : Lossy
Stream size : 274 MiB (15%)
Language : English
Service kind : Complete Main
Default : Yes
Forced : No

Text #1
ID : 3
Format : UTF-8
Codec ID : S_TEXT/UTF8
Codec ID/Info : UTF-8 Plain Text
Title : English
Language : English
Default : No
Forced : No

Text #2
ID : 4
Format : UTF-8
Codec ID : S_TEXT/UTF8
Codec ID/Info : UTF-8 Plain Text
Title : English (SDH)
Language : English
Default : No
Forced : No





Westworld S02E05


Westworld S02E05


Westworld S02E05


Westworld S02E05


Westworld S02E05

All episodes