Yu-Gi-Oh! Vrains S01E57

Posted By: Tavaz
1080p (FullHD) / WEBRip IMDb
Yu-Gi-Oh! Vrains S01E57

Yu-Gi-Oh! Vrains S01E57
WEBRip | MKV | 1920x1080 | Japanese | H264 @ 7753 kbps | AAC @ 128 kbps | 24 min 7 s | 1.33 GiB
Subtitles: German, Portuguese, Spanish, English



229dabcbf74442bd9b2b8aebd48ee9a7.mkv (1.3 GB)



General
Unique ID : 248338131122167315284759932682385770766 (0xBAD42F2EAFD477429AA62A238BA0490E)
Complete name : ./229dabcbf74442bd9b2b8aebd48ee9a7.mkv
Format : Matroska
Format version : Version 4 / Version 2
File size : 1.33 GiB
Duration : 24 min 7 s
Overall bit rate : 7 877 kb/s
Movie name : Yu-Gi-Oh! VRAINS Episode 57 - Watch on Crunchyroll
Encoded date : UTC 2018-06-20 16:27:54
Writing application : mkvmerge v12.0.0 ('Trust / Lust') 64bit
Writing library : libebml v1.3.4 + libmatroska v1.4.5

Video
ID : 1
Format : AVC
Format/Info : Advanced Video Codec
Format profile : High@L4
Format settings : CABAC / 4 Ref Frames
Format settings, CABAC : Yes
Format settings, RefFrames : 4 frames
Codec ID : V_MPEG4/ISO/AVC
Duration : 24 min 5 s
Bit rate : 7 754 kb/s
Width : 1 920 pixels
Height : 1 080 pixels
Display aspect ratio : 16:9
Frame rate mode : Constant
Frame rate : 29.970 (30000/1001) FPS
Color space : YUV
Chroma subsampling : 4:2:0
Bit depth : 8 bits
Scan type : Progressive
Bits/(Pixel*Frame) : 0.125
Stream size : 1.31 GiB (98%)
Writing library : x264 core 142
Encoding settings : cabac=1 / ref=4 / deblock=1:1:1 / analyse=0x3:0x113 / me=umh / subme=8 / psy=1 / psy_rd=0.40:0.00 / mixed_ref=1 / me_range=16 / chroma_me=1 / trellis=1 / 8x8dct=1 / cqm=0 / deadzone=21,11 / fast_pskip=1 / chroma_qp_offset=-2 / threads=12 / lookahead_threads=2 / sliced_threads=0 / nr=0 / decimate=1 / interlaced=0 / bluray_compat=0 / constrained_intra=0 / bframes=3 / b_pyramid=2 / b_adapt=2 / b_bias=0 / direct=3 / weightb=1 / open_gop=0 / weightp=2 / keyint=60 / keyint_min=30 / scenecut=40 / intra_refresh=0 / rc_lookahead=50 / rc=crf / mbtree=1 / crf=15.0 / qcomp=0.60 / qpmin=0 / qpmax=69 / qpstep=4 / vbv_maxrate=8000 / vbv_bufsize=12000 / crf_max=0.0 / nal_hrd=none / filler=0 / ip_ratio=1.40 / aq=1:0.60
Language : Japanese
Default : Yes
Forced : No

Audio
ID : 2
Format : AAC
Format/Info : Advanced Audio Codec
Format profile : LC
Codec ID : A_AAC-2
Duration : 24 min 5 s
Bit rate : 128 kb/s
Channel(s) : 2 channels
Channel positions : Front: L R
Sampling rate : 44.1 kHz
Frame rate : 43.066 FPS (1024 SPF)
Compression mode : Lossy
Delay relative to video : -67 ms
Stream size : 22.1 MiB (2%)
Language : Japanese
Default : Yes
Forced : No

Text #1
ID : 3
Format : ASS
Codec ID : S_TEXT/ASS
Codec ID/Info : Advanced Sub Station Alpha
Duration : 24 min 4 s
Bit rate : 115 b/s
Count of elements : 309
Compression mode : Lossless
Stream size : 20.3 KiB (0%)
Title : [English (US)]
Language : English
Default : Yes
Forced : No

Text #2
ID : 4
Format : ASS
Codec ID : S_TEXT/ASS
Codec ID/Info : Advanced Sub Station Alpha
Duration : 24 min 3 s
Bit rate : 122 b/s
Count of elements : 316
Compression mode : Lossless
Stream size : 21.5 KiB (0%)
Title : [Espanol]
Language : Spanish
Default : No
Forced : No

Text #3
ID : 5
Format : ASS
Codec ID : S_TEXT/ASS
Codec ID/Info : Advanced Sub Station Alpha
Duration : 24 min 2 s
Bit rate : 123 b/s
Count of elements : 322
Compression mode : Lossless
Stream size : 21.8 KiB (0%)
Title : [Portugues (Brasil)]
Language : Portuguese
Default : No
Forced : No

Text #4
ID : 6
Format : ASS
Codec ID : S_TEXT/ASS
Codec ID/Info : Advanced Sub Station Alpha
Duration : 24 min 2 s
Bit rate : 131 b/s
Count of elements : 332
Compression mode : Lossless
Stream size : 23.1 KiB (0%)
Title : [Deutsch]
Language : German
Default : No
Forced : No





Yu-Gi-Oh! Vrains S01E57


Yu-Gi-Oh! Vrains S01E57


Yu-Gi-Oh! Vrains S01E57


Yu-Gi-Oh! Vrains S01E57

All episodes