Les Chroniques de Shannara S02E08

Posted By: Tavaz
SD / HDTV IMDb
Les Chroniques de Shannara S02E08

Les Chroniques de Shannara S02E08
HDTV | MKV | 720x404 | English | H264 @ 933 kbps | AAC @ 126 kbps | 39 min 52 s | 303 MiB

Des millions d'années après l'extinction de la civilisation que nous connaissons, les Quatre Terres sont menacées par la mort imminente de l'Arbre protecteur Ellcrys qui renferme des forces terribles et obscures. A chaque feuille tombée, les démons se réveillent de l'au-delà. La princesse Amberle, le demi-elfe et la solitaire Eretria commencent alors leur quête contre les forces du Mal.

the.shannara.chronicles.s02e08.french.hdtv.x264-amb3r.mkv (302.8 MB)



General
Unique ID : 223866385269934059327243349232442421135 (0xA86B18F55250259CA84AB7F2F9B42F8F)
Complete name : ./the.shannara.chronicles.s02e08.french.hdtv.x264-amb3r.mkv
Format : Matroska
Format version : Version 4 / Version 2
File size : 303 MiB
Duration : 39 min 52 s
Overall bit rate : 1 062 kb/s
Encoded date : UTC 2018-02-13 21:31:26
Writing application : mkvmerge v9.8.0 ('Kuglblids') 64bit
Writing library : libebml v1.3.4 + libmatroska v1.4.5

Video
ID : 1
Format : AVC
Format/Info : Advanced Video Codec
Format profile : High@L3.1
Format settings : CABAC / 5 Ref Frames
Format settings, CABAC : Yes
Format settings, RefFrames : 5 frames
Codec ID : V_MPEG4/ISO/AVC
Duration : 39 min 52 s
Bit rate : 933 kb/s
Width : 720 pixels
Height : 404 pixels
Display aspect ratio : 16:9
Frame rate mode : Constant
Frame rate : 25.000 FPS
Color space : YUV
Chroma subsampling : 4:2:0
Bit depth : 8 bits
Scan type : Progressive
Bits/(Pixel*Frame) : 0.128
Stream size : 266 MiB (88%)
Writing library : x264 core 155 r2901 7d0ff22
Encoding settings : cabac=1 / ref=5 / deblock=1:-3:-3 / analyse=0x3:0x113 / me=hex / subme=8 / psy=1 / psy_rd=1.00:0.00 / mixed_ref=1 / me_range=16 / chroma_me=1 / trellis=2 / 8x8dct=1 / cqm=0 / deadzone=21,11 / fast_pskip=0 / chroma_qp_offset=-2 / threads=12 / lookahead_threads=2 / sliced_threads=0 / nr=0 / decimate=1 / interlaced=0 / bluray_compat=0 / constrained_intra=0 / bframes=3 / b_pyramid=2 / b_adapt=1 / b_bias=0 / direct=3 / weightb=1 / open_gop=0 / weightp=2 / keyint=250 / keyint_min=25 / scenecut=40 / intra_refresh=0 / rc_lookahead=50 / rc=crf / mbtree=1 / crf=19.0 / qcomp=0.60 / qpmin=0 / qpmax=69 / qpstep=4 / ip_ratio=1.40 / aq=1:1.00
Default : Yes
Forced : No
Color range : Limited
Color primaries : BT.709
Transfer characteristics : BT.709
Matrix coefficients : BT.709

Audio
ID : 2
Format : AAC
Format/Info : Advanced Audio Codec
Format profile : LC
Codec ID : A_AAC-2
Duration : 39 min 52 s
Bit rate : 126 kb/s
Channel(s) : 2 channels
Channel positions : Front: L R
Sampling rate : 48.0 kHz
Frame rate : 46.875 FPS (1024 SPF)
Compression mode : Lossy
Delay relative to video : 9 ms
Stream size : 36.0 MiB (12%)
Default : Yes
Forced : No





Les Chroniques de Shannara S02E08


Les Chroniques de Shannara S02E08


Les Chroniques de Shannara S02E08


Les Chroniques de Shannara S02E08


Les Chroniques de Shannara S02E08

All episodes