ZDF - 300 Million Years: Series 1 (2015)

Posted By: notbanned
720p (HD) / HDTV
ZDF - 300 Million Years: Series 1 (2015)

ZDF - 300 Million Years: Series 1 (2015)
HDTV | 1280x720 | .MKV/AVC @ 2850 Kbps | 2x~51min | 2.16 GiB
Audio: English AAC 160 kbps, 2 channels | Subs: None
Genre: Documentary

“300 Million Years” relates the dramatic history of how the continent of Europe came to be – from the carboniferous period until today. During its long creation process Europe has “traveled” through various climate zones, has been shaped by the elements and transformed by collisions with other continents. Seen from a geological perspective, human beings have been on the earth for only a few short moments, but within this brief time we have already fundamentally transformed the planet.
Part 1: The Big Crash
The Big Crash” relates the dramatic history of how the continent of Europe came to be – from the carboniferous period to the extinction of the dinosaurs 65 million years ago. During its long creation process Europe has “traveled” through various climate zones, has been shaped by the elements and transformed by collisions with other continents. Dinosaurs were also at home here – until the Big Crash came.

Part 2: My Human Earth
In the subsequent 65 million years, mammals are part of Europe’s history. Sea mammals conquered the oceans while herds of herbivores crisscrossed the land. It was 600,000 years ago that Homo Heidelbergensis first began hunting. Seen from a geological perspective, human beings have been on the earth for only a few short moments, but within this brief time we have already fundamentally transformed the planet. Rivers have been straightened, forests cleared and roads laid down across the natural habitats of nearly all the earth’s animals.

General
Complete name : 300.Million.Years.Part.1.The.Big.Crash.720p.mp4
Format : MPEG-4
Format profile : Base Media
Codec ID : isom (isom)
File size : 1.08 GiB
Duration : 51 min 56 s
Overall bit rate mode : Variable
Overall bit rate : 2 974 kb/s

Video
ID : 1
Format : AVC
Format/Info : Advanced Video Codec
Format profile : High@L4.1
Format settings, CABAC : Yes
Format settings, ReFrames : 4 frames
Codec ID : avc1
Codec ID/Info : Advanced Video Coding
Duration : 51 min 56 s
Source duration : 51 min 56 s
Bit rate : 2 850 kb/s
Maximum bit rate : 10.4 Mb/s
Width : 1 280 pixels
Height : 720 pixels
Display aspect ratio : 16:9
Frame rate mode : Constant
Frame rate : 29.970 (30000/1001) FPS
Color space : YUV
Chroma subsampling : 4:2:0
Bit depth : 8 bits
Scan type : Progressive
Bits/(Pixel*Frame) : 0.103
Stream size : 1.02 GiB (94%)
Source stream size : 1.02 GiB (94%)
Encoding settings : cabac=1 / ref=1 / deblock=1:0:0 / analyse=0x3:0x113 / me=hex / subme=2 / psy=1 / psy_rd=1.00:0.00 / mixed_ref=0 / me_range=16 / chroma_me=1 / trellis=0 / 8x8dct=1 / cqm=0 / deadzone=21,11 / fast_pskip=1 / chroma_qp_offset=0 / threads=6 / lookahead_threads=2 / sliced_threads=0 / nr=0 / decimate=1 / interlaced=0 / bluray_compat=0 / constrained_intra=0 / bframes=3 / b_pyramid=2 / b_adapt=1 / b_bias=0 / direct=1 / weightb=1 / open_gop=0 / weightp=1 / keyint=300 / keyint_min=30 / scenecut=40 / intra_refresh=0 / rc_lookahead=10 / rc=abr / mbtree=1 / bitrate=2850 / ratetol=1.0 / qcomp=0.60 / qpmin=0 / qpmax=69 / qpstep=4 / vbv_maxrate=62500 / vbv_bufsize=78125 / nal_hrd=none / ip_ratio=1.40 / aq=1:1.00
Encoded date : UTC 2018-01-11 02:16:11
Tagged date : UTC 2018-01-11 19:04:48
Color range : Limited
Color primaries : BT.709
Transfer characteristics : BT.709
Matrix coefficients : BT.709

Audio
ID : 2
Format : AAC
Format/Info : Advanced Audio Codec
Format profile : LC
Codec ID : 40
Duration : 51 min 56 s
Bit rate mode : Variable
Bit rate : 160 kb/s
Maximum bit rate : 220 kb/s
Channel(s) : 2 channels
Channel positions : Front: L R
Sampling rate : 44.1 kHz
Frame rate : 43.066 FPS (1024 spf)
Compression mode : Lossy
Stream size : 59.4 MiB (5%)
Encoded date : UTC 2018-01-11 19:04:43
Tagged date : UTC 2018-01-11 19:04:48

Text
ID : 3
Format : Timed Text
Codec ID : tx3g
Duration : 51 min 26 s
Bit rate mode : Variable
Bit rate : 73 b/s
Stream size : 27.4 KiB (0%)
Forced : No
Encoded date : UTC 2018-01-11 19:04:48
Tagged date : UTC 2018-01-11 19:04:48


Screenshots:

ZDF - 300 Million Years: Series 1 (2015)

ZDF - 300 Million Years: Series 1 (2015)

ZDF - 300 Million Years: Series 1 (2015)

ZDF - 300 Million Years: Series 1 (2015)