9 Songs (2004) [UNCUT]

Posted By: Tavaz
1080p (FullHD) / BDRip IMDb
9 Songs (2004) [UNCUT]

9 Songs (2004)
BDRip | MKV | 1920x1032 | English | H264 @ 15750 kbps | DTS @ 768 kbps | 1 h 9 min | 8.03 GiB
Genre: Drama, Music, Romance

Matt, a young glaciologist, soars across the vast, silent, icebound immensities of the South Pole as he recalls his love affair with Lisa. They meet at a mobbed rock concert in a vast music hall - London's Brixton Academy. They are in bed at night's end. Together, over a period of several months, they pursue a mutual sexual passion whose inevitable stages unfold in counterpoint to nine live-concert songs.

9.Songs.2004.UNCUT.1080p.BluRay.DTS.x264-decibeL.mkv (8.0 GB)



General
Unique ID : 194744415198386887713932946601896044393 (0x928268FA8FEAD17DA3796C47544FE769)
Complete name : ./9.Songs.2004.UNCUT.1080p.BluRay.DTS.x264-decibeL.mkv
Format : Matroska
Format version : Version 2
File size : 8.03 GiB
Duration : 1 h 9 min
Overall bit rate : 16.5 Mb/s
Movie name : 9.Songs.2004.UNCUT.1080p.BluRay.DTS.x264-decibeL
Encoded date : UTC 2012-11-13 14:31:56
Writing application : mkvmerge v5.8.0 ('No Sleep / Pillow') built on Sep 2 2012 15:37:04
Writing library : libebml v1.2.3 + libmatroska v1.3.0

Video
ID : 1
Format : AVC
Format/Info : Advanced Video Codec
Format profile : High@L4.1
Format settings : CABAC / 4 Ref Frames
Format settings, CABAC : Yes
Format settings, RefFrames : 4 frames
Codec ID : V_MPEG4/ISO/AVC
Duration : 1 h 9 min
Bit rate : 15.8 Mb/s
Width : 1 920 pixels
Height : 1 032 pixels
Display aspect ratio : 1.85:1
Frame rate mode : Constant
Frame rate : 23.976 (24000/1001) FPS
Color space : YUV
Chroma subsampling : 4:2:0
Bit depth : 8 bits
Scan type : Progressive
Bits/(Pixel*Frame) : 0.332
Stream size : 7.50 GiB (93%)
Writing library : x264 core 129 r2230 1cffe9f
Encoding settings : cabac=1 / ref=4 / deblock=1:-3:-3 / analyse=0x3:0x113 / me=umh / subme=10 / psy=1 / psy_rd=1.00:0.00 / mixed_ref=1 / me_range=64 / chroma_me=1 / trellis=2 / 8x8dct=1 / cqm=0 / deadzone=21,11 / fast_pskip=0 / chroma_qp_offset=0 / threads=3 / lookahead_threads=1 / sliced_threads=0 / nr=0 / decimate=1 / interlaced=0 / bluray_compat=0 / constrained_intra=0 / bframes=7 / b_pyramid=2 / b_adapt=2 / b_bias=0 / direct=3 / weightb=1 / open_gop=0 / weightp=2 / keyint=240 / keyint_min=23 / scenecut=40 / intra_refresh=0 / rc_lookahead=90 / rc=2pass / mbtree=1 / bitrate=15750 / ratetol=1.0 / qcomp=0.70 / qpmin=10 / qpmax=51 / qpstep=4 / cplxblur=20.0 / qblur=0.5 / vbv_maxrate=38000 / vbv_bufsize=30000 / nal_hrd=none / ip_ratio=1.40 / aq=1:0.90
Language : English
Default : Yes
Forced : No

Audio
ID : 2
Format : DTS
Format/Info : Digital Theater Systems
Mode : 16
Format settings, Endianness : Big
Codec ID : A_DTS
Duration : 1 h 9 min
Bit rate mode : Constant
Bit rate : 768 kb/s
Channel(s) : 6 channels
Channel positions : Front: L C R, Side: L R, LFE
Sampling rate : 48.0 kHz
Frame rate : 93.750 FPS (512 SPF)
Bit depth : 24 bits
Compression mode : Lossy
Stream size : 383 MiB (5%)
Language : English
Default : Yes
Forced : No

Menu
00:00:00.000 : en:Black Revel Motorcycle Club
00:05:34.720 : en:The First Time
00:11:56.000 : en:The Von Bondies
00:15:33.520 : en:Eating In
00:21:27.040 : en:Elbow
00:27:16.520 : en:Wet and Wild
00:35:55.600 : en:Primal Scream
00:42:30.960 : en:All Tied Up
00:47:38.000 : en:The Dandy Warhols
00:52:32.920 : en:Blindfold
00:56:45.120 : en:She's All She Needs
01:01:56.800 : en:Super Furry Animals





9 Songs (2004) [UNCUT]


9 Songs (2004) [UNCUT]


9 Songs (2004) [UNCUT]


9 Songs (2004) [UNCUT]


9 Songs (2004) [UNCUT]