Abe & Phil's Last Poker Game (2017)

Posted By: JohnSmith
SD / WEB-DL IMDb
Abe & Phil's Last Poker Game (2017)

Abe & Phil's Last Poker Game (2017)
HDRip | AVI / XviD@1825 kb/s | 720x304 | 1h 29mn | 1.39 GB | English: AC3, 384 kb/s (6 ch)
Genre: Comedy | Drama

Dr. Abe Mandelbaum has just moved into a new manor with his ailing wife. After forming an unlikely friendship with a womanizing gambler, their relationship is tested when they each try to convince a mysterious nurse that they are her long-lost father.




General
Complete name : G:\Abe.and.Phils.Last.Poker.Game.2017.HDRip.XviD.AC3-EVO\Abe.and.Phils.Last.Poker.Game.2017.HDRip.XviD.AC3-EVO.avi
Format : AVI
Format/Info : Audio Video Interleave
File size : 1.39 GiB
Duration : 1 h 29 min
Overall bit rate : 2 218 kb/s
Writing library : VirtualDub build 32593/release

Video
ID : 0
Format : MPEG-4 Visual
Format profile : Advanced Simple@L5
Format settings, BVOP : 2
Format settings, QPel : No
Format settings, GMC : No warppoints
Format settings, Matrix : Default (H.263)
Muxing mode : Packed bitstream
Codec ID : XVID
Codec ID/Hint : XviD
Duration : 1 h 29 min
Bit rate : 1 825 kb/s
Width : 720 pixels
Height : 304 pixels
Display aspect ratio : 2.35:1
Frame rate : 24.000 FPS
Color space : YUV
Chroma subsampling : 4:2:0
Bit depth : 8 bits
Scan type : Progressive
Compression mode : Lossy
Bits/(Pixel*Frame) : 0.347
Stream size : 1.14 GiB (82%)
Writing library : XviD 66

Audio
ID : 1
Format : AC-3
Format/Info : Audio Coding 3
Format settings, Endianness : Big
Codec ID : 2000
Duration : 1 h 29 min
Bit rate mode : Constant
Bit rate : 384 kb/s
Channel(s) : 6 channels
Channel positions : Front: L C R, Side: L R, LFE
Sampling rate : 48.0 kHz
Frame rate : 31.250 FPS (1536 spf)
Bit depth : 16 bits
Compression mode : Lossy
Stream size : 246 MiB (17%)
Alignment : Aligned on interleaves
Interleave, duration : 42 ms (1.00 video frame)
Interleave, preload duratio : 512 ms
Service kind : Complete Main




Screenshots

Abe & Phil's Last Poker Game (2017)

Abe & Phil's Last Poker Game (2017)

Abe & Phil's Last Poker Game (2017)