Acts of Violence (2018)

Posted By: JohnSmith
1080p (FullHD) / WEB-DL IMDb
Acts of Violence (2018)

Acts of Violence (2018)
HDRip | AVI / XviD@1907 kb/s | 720x304 | 1h 26mn | 1.39 GB | English: AC3, 384 kb/s (6 ch)
WEB-DL 720p | MKV / AVC@3964 kb/s | 1280x530 | 1h 26mn | 2.69 GB | English: AC3, 384 kb/s (6 ch)
WEB-DL 1080p | MKV / AVC@4570 kb/s | 1908x792 | 1h 26mn | 3.00 GB | English: AC3, 384 kb/s (6 ch)
Genre: Action | Drama

When his fiancee is kidnapped by human traffickers, Roman (Ashton Holmes) and his ex-military brothers set out to track her down and save her before it is too late. Along the way, Roman teams up with Avery (Bruce Willis), a cop investigating human trafficking and fighting the corrupted bureaucracy that has harmful intentions.




General
Complete name : G:\Acts of Violence.2018.HDRip.XviD.AC3-EVO\Acts of Violence.2018.HDRip.XviD.AC3-EVO.avi
Format : AVI
Format/Info : Audio Video Interleave
File size : 1.39 GiB
Duration : 1 h 26 min
Overall bit rate : 2 300 kb/s
Writing library : VirtualDub build 32593/release

Video
ID : 0
Format : MPEG-4 Visual
Format profile : Advanced Simple@L5
Format settings, BVOP : 2
Format settings, QPel : No
Format settings, GMC : No warppoints
Format settings, Matrix : Default (H.263)
Muxing mode : Packed bitstream
Codec ID : XVID
Codec ID/Hint : XviD
Duration : 1 h 26 min
Bit rate : 1 907 kb/s
Width : 720 pixels
Height : 304 pixels
Display aspect ratio : 2.35:1
Frame rate : 23.976 (24000/1001) FPS
Color space : YUV
Chroma subsampling : 4:2:0
Bit depth : 8 bits
Scan type : Progressive
Compression mode : Lossy
Bits/(Pixel*Frame) : 0.363
Stream size : 1.16 GiB (83%)
Writing library : XviD 66

Audio
ID : 1
Format : AC-3
Format/Info : Audio Coding 3
Format settings, Endianness : Big
Codec ID : 2000
Duration : 1 h 26 min
Bit rate mode : Constant
Bit rate : 384 kb/s
Channel(s) : 6 channels
Channel positions : Front: L C R, Side: L R, LFE
Sampling rate : 48.0 kHz
Frame rate : 31.250 FPS (1536 spf)
Bit depth : 16 bits
Compression mode : Lossy
Stream size : 238 MiB (17%)
Alignment : Aligned on interleaves
Interleave, duration : 42 ms (1.00 video frame)
Interleave, preload duratio : 512 ms
Service kind : Complete Main





General
Unique ID : 181877580986998014516157583529166648421 (0x88D45912D437EADBB12FCB944EBE3465)
Complete name : G:\Acts of Violence.2018.720p.WEB-DL.H264.AC3-EVO\Acts of Violence.2018.720p.WEB-DL.H264.AC3-EVO.mkv
Format : Matroska
Format version : Version 4 / Version 2
File size : 2.69 GiB
Duration : 1 h 26 min
Overall bit rate : 4 437 kb/s
Movie name : EVO
Encoded date : UTC 2018-01-12 11:44:06
Writing application : mkvmerge v6.7.0 ('Back to the Ground') 64bit built on Jan 8 2014 15:10:52
Writing library : libebml v1.3.0 + libmatroska v1.4.1

Video
ID : 2
Format : AVC
Format/Info : Advanced Video Codec
Format profile : Main@L3.1
Format settings, CABAC : No
Format settings, ReFrames : 2 frames
Codec ID : V_MPEG4/ISO/AVC
Duration : 1 h 26 min
Bit rate : 3 964 kb/s
Width : 1 280 pixels
Height : 530 pixels
Display aspect ratio : 2.40:1
Frame rate mode : Constant
Frame rate : 23.976 (24000/1001) FPS
Color space : YUV
Chroma subsampling : 4:2:0
Bit depth : 8 bits
Scan type : Progressive
Bits/(Pixel*Frame) : 0.244
Stream size : 2.40 GiB (89%)
Language : English
Default : Yes
Forced : No
Color range : Limited
Color primaries : BT.709
Transfer characteristics : BT.709
Matrix coefficients : BT.709

Audio
ID : 1
Format : AC-3
Format/Info : Audio Coding 3
Format settings, Endianness : Big
Codec ID : A_AC3
Duration : 1 h 26 min
Bit rate mode : Constant
Bit rate : 384 kb/s
Channel(s) : 6 channels
Channel positions : Front: L C R, Side: L R, LFE
Sampling rate : 48.0 kHz
Frame rate : 31.250 FPS (1536 spf)
Bit depth : 16 bits
Compression mode : Lossy
Stream size : 238 MiB (9%)
Language : English
Service kind : Complete Main
Default : Yes
Forced : No

Menu
00:00:00.000 : en:1
00:10:31.000 : en:2
00:19:56.000 : en:3
00:26:10.000 : en:4
00:34:50.000 : en:5
00:42:27.000 : en:6
00:51:49.000 : en:7
01:00:58.000 : en:8
01:07:17.000 : en:9
01:20:49.000 : en:10





General
Unique ID : 171849969353858371414635006358700459568 (0x814919A62FDF99E8AC74AB25500C8630)
Complete name : A:\Acts.of.Violence.2018.1080p.WEB-DL.mkv
Format : Matroska
Format version : Version 4 / Version 2
File size : 3.00 GiB
Duration : 1 h 26 min
Overall bit rate : 4 954 kb/s
Encoded date : UTC 2018-01-12 13:44:10
Writing application : mkvmerge v8.3.0 ('Over the Horizon') 64bit
Writing library : libebml v1.3.1 + libmatroska v1.4.2

Video
ID : 1
Format : AVC
Format/Info : Advanced Video Codec
Format profile : High@L4
Format settings, CABAC : Yes
Format settings, ReFrames : 5 frames
Codec ID : V_MPEG4/ISO/AVC
Duration : 1 h 26 min
Bit rate : 4 568 kb/s
Width : 1 908 pixels
Height : 792 pixels
Display aspect ratio : 2.40:1
Frame rate mode : Constant
Frame rate : 23.976 (24000/1001) FPS
Color space : YUV
Chroma subsampling : 4:2:0
Bit depth : 8 bits
Scan type : Progressive
Bits/(Pixel*Frame) : 0.126
Stream size : 2.77 GiB (92%)
Language : English
Default : Yes
Forced : No
Color range : Limited
Color primaries : BT.709
Transfer characteristics : BT.709
Matrix coefficients : BT.709

Audio
ID : 2
Format : AC-3
Format/Info : Audio Coding 3
Format settings, Endianness : Big
Codec ID : A_AC3
Duration : 1 h 26 min
Bit rate mode : Constant
Bit rate : 384 kb/s
Channel(s) : 6 channels
Channel positions : Front: L C R, Side: L R, LFE
Sampling rate : 48.0 kHz
Frame rate : 31.250 FPS (1536 spf)
Bit depth : 16 bits
Compression mode : Lossy
Stream size : 238 MiB (8%)
Language : English
Service kind : Complete Main
Default : Yes
Forced : No

Menu
00:00:00.000 : en:1
00:10:31.000 : en:2
00:19:56.000 : en:3
00:26:10.000 : en:4
00:34:50.000 : en:5
00:42:27.000 : en:6
00:51:49.000 : en:7
01:00:58.000 : en:8
01:07:17.000 : en:9
01:20:49.000 : en:10




Screenshots HDRip

Acts of Violence (2018)

Acts of Violence (2018)

Acts of Violence (2018)


Screenshots WEB-DL 720p

Acts of Violence (2018)

Acts of Violence (2018)

Acts of Violence (2018)


Screenshots WEB-DL 1080p

Acts of Violence (2018)

Acts of Violence (2018)

Acts of Violence (2018)