Adventures in Public School (2017)

Posted By: Tavaz
1080p (FullHD) / BDRip IMDb
Adventures in Public School (2017)

Adventures in Public School (2017)
BDRip | MKV | 1280x696 | H264 @ 3500 kbps | AC-3 @ 448 kbps | 1 h 26 min | 2.37 GiB
BluRay Remux | MKV | 1920x1080 | English | H264 @ 23901 kbps | DTS | 1 h 26 min | 16.6 GiB
Subtitles: English
Genre: Comedy

A socially awkward home-schooled kid forces his way into public-school against his suffocating but loving mother's wishes.

2826ac49bafc44ddbd562fedda54d3da.mkv (16.6 GB)



General
Complete name : ./2826ac49bafc44ddbd562fedda54d3da.mkv
Format : Matroska
Format version : Version 4 / Version 2
File size : 16.6 GiB
Duration : 1 h 26 min
Overall bit rate mode : Variable
Overall bit rate : 27.6 Mb/s
Encoded date : UTC 2018-07-11 15:07:02
Writing application : mkvmerge v24.0.0 ('Beyond The Pale') 64-bit
Writing library : libebml v1.3.6 + libmatroska v1.4.9

Video
ID : 1
Format : AVC
Format/Info : Advanced Video Codec
Format profile : High@L4.1
Format settings : CABAC / 4 Ref Frames
Format settings, CABAC : Yes
Format settings, RefFrames : 4 frames
Codec ID : V_MPEG4/ISO/AVC
Duration : 1 h 26 min
Bit rate mode : Variable
Bit rate : 23.9 Mb/s
Maximum bit rate : 38.0 Mb/s
Width : 1 920 pixels
Height : 1 080 pixels
Display aspect ratio : 16:9
Frame rate mode : Constant
Frame rate : 23.976 (24000/1001) FPS
Color space : YUV
Chroma subsampling : 4:2:0
Bit depth : 8 bits
Scan type : Progressive
Bits/(Pixel*Frame) : 0.481
Stream size : 14.4 GiB (87%)
Default : Yes
Forced : No

Audio
ID : 2
Format : DTS
Format/Info : Digital Theater Systems
Format profile : MA / Core
Mode : 16
Format settings, Endianness : Big
Codec ID : A_DTS
Duration : 1 h 26 min
Bit rate mode : Variable / Constant
Bit rate : 3 566 kb/s / 1 509 kb/s
Channel(s) : 6 channels
Channel positions : Front: L C R, Side: L R, LFE
Sampling rate : 48.0 kHz
Frame rate : 93.750 FPS (512 SPF)
Bit depth : 24 bits
Compression mode : Lossless / Lossy
Stream size : 2.15 GiB (13%)
Title : DTS-HD MA 5.1
Language : English
Default : Yes
Forced : No

Text
ID : 3
Format : PGS
Codec ID : S_HDMV/PGS
Codec ID/Info : Picture based subtitle format used on BDs/HD-DVDs
Duration : 1 h 25 min
Bit rate : 93.3 kb/s
Count of elements : 3144
Stream size : 57.0 MiB (0%)
Title : English (SDH)
Language : English
Default : No
Forced : No

Menu
00:00:00.000 : en:Chapter 01
00:11:27.562 : en:Chapter 02
00:21:30.581 : en:Chapter 03
00:30:40.672 : en:Chapter 04
00:43:32.610 : en:Chapter 05
00:55:08.889 : en:Chapter 06
01:03:46.656 : en:Chapter 07
01:13:10.344 : en:Chapter 08





Adventures in Public School (2017)


Adventures in Public School (2017)


Adventures in Public School (2017)


Adventures in Public School (2017)


Adventures in Public School (2017)