BBC - Africa's Great Civilisations Series 1: Origins (2018)

Posted By: notbanned
720p (HD) / HDTV
BBC - Africa's Great Civilisations Series 1: Origins (2018)

BBC - Africa's Great Civilisations Series 1: Origins (2018)
HDTV | 1008x576 | .MP4/AVC @ 1556 Kbps | 52 min 26 s | 705 MiB
Audio: English AAC 317 kbps, 2 channels | Subs: None
Genre: Documentary

Henry Louis Gates Jr takes a new look at the history of Africa, from the birth of humankind to the dawn of the 20th century. The award-winning film-maker and academic Henry Louis Gates Jr travels the length and breadth of Africa to explore the continent's epic history. In this first episode, Gates focuses on the origins of human existence and looks at the anthropological and scientific discoveries that point to Africa as the genetic home of all currently living humanity. He then traces the roots of agriculture, writing, artistic expression and iron working to their birthplaces on the African continent.

General
Complete name : Africas.Great.Civilisations.Part1.Origins.720p.mp4
Format : MPEG-4
Format profile : Base Media / Version 2
Codec ID : mp42 (isom/iso2/avc1/mp41)
File size : 705 MiB
Duration : 52 min 26 s
Overall bit rate mode : Variable
Overall bit rate : 1 880 kb/s

Video
ID : 1
Format : AVC
Format/Info : Advanced Video Codec
Format profile : High@L4.1
Format settings, CABAC : Yes
Format settings, ReFrames : 4 frames
Codec ID : avc1
Codec ID/Info : Advanced Video Coding
Duration : 52 min 26 s
Bit rate : 1 556 kb/s
Width : 1 008 pixels
Height : 576 pixels
Display aspect ratio : 16:9
Frame rate mode : Constant
Frame rate : 25.000 FPS
Color space : YUV
Chroma subsampling : 4:2:0
Bit depth : 8 bits
Scan type : Progressive
Bits/(Pixel*Frame) : 0.107
Stream size : 584 MiB (83%)
Encoding settings : cabac=1 / ref=1 / deblock=1:-1:-1 / analyse=0x3:0x113 / me=hex / subme=2 / psy=1 / psy_rd=1.00:0.15 / mixed_ref=0 / me_range=16 / chroma_me=1 / trellis=0 / 8x8dct=1 / cqm=0 / deadzone=21,11 / fast_pskip=1 / chroma_qp_offset=0 / threads=6 / lookahead_threads=2 / sliced_threads=0 / nr=0 / decimate=1 / interlaced=0 / bluray_compat=0 / constrained_intra=0 / bframes=3 / b_pyramid=2 / b_adapt=1 / b_bias=0 / direct=1 / weightb=1 / open_gop=0 / weightp=1 / keyint=250 / keyint_min=25 / scenecut=40 / intra_refresh=0 / rc_lookahead=10 / rc=crf / mbtree=1 / crf=20.0 / qcomp=0.60 / qpmin=0 / qpmax=69 / qpstep=4 / vbv_maxrate=62500 / vbv_bufsize=78125 / crf_max=0.0 / nal_hrd=none / filler=0 / ip_ratio=1.40 / aq=1:1.00
Encoded date : UTC 2018-05-29 22:23:48
Tagged date : UTC 2018-05-29 22:23:48
Color range : Limited
Color primaries : BT.709
Transfer characteristics : BT.709
Matrix coefficients : BT.709

Audio
ID : 2
Format : AAC
Format/Info : Advanced Audio Codec
Format profile : LC
Codec ID : 40
Duration : 52 min 25 s
Bit rate mode : Variable
Bit rate : 317 kb/s
Channel(s) : 2 channels
Channel positions : Front: L R
Sampling rate : 48.0 kHz
Frame rate : 46.875 FPS (1024 spf)
Compression mode : Lossy
Stream size : 119 MiB (17%)
Title : Stereo / Stereo
Language : English
Default : Yes
Alternate group : 1
Encoded date : UTC 2018-05-29 22:23:48
Tagged date : UTC 2018-05-29 22:23:48


Screenshots:

BBC - Africa's Great Civilisations Series 1: Origins (2018)

BBC - Africa's Great Civilisations Series 1: Origins (2018)

BBC - Africa's Great Civilisations Series 1: Origins (2018)

BBC - Africa's Great Civilisations Series 1: Origins (2018)

BBC - Africa's Great Civilisations Series 1: Origins (2018)