All the Queen's Horses (2017)

Posted By: Tavaz
720p (HD) / WEB-DL IMDb
All the Queen's Horses (2017)

All the Queen's Horses (2017)
WEB-DL | MKV | 1280x720 | English | H264 @ 3000 kbps | E-AC-3 @ 128 kbps | 1 h 10 min | 1.52 GiB
WEB-DL | MKV | 1920x1080 | English | H264 @ 5800 kbps | E-AC-3 @ 128 kbps | 1 h 10 min | 2.88 GiB
Subtitles: English
Genre: Documentary

In 2012, Crundwell was arrested as the largest municipal fraud perpetrator in the nation's history, embezzling upwards of $50 million as the comptroller and treasurer of Dixon, a city in the heart of Illinois. Rita Crundwell became one of the nation's leading quarter horse breeders, traveled the world, and threw lavish parties, all while forcing staff cuts, police budget slashing, and leaving public infrastructure in disrepair. All the Queen's Horses aims to illuminate this landmark case and bring to light the blatant negligence of auditors and bankers the public relied on to keep their tax dollars safe.

cf589dbdacd04ed7a97aeba4ef050347.mkv (1.5 GB)



General
Unique ID : 67292601088493721122251042997061343925 (0x32A01563597AC5EAAC5B1C436A78DAB5)
Complete name : ./cf589dbdacd04ed7a97aeba4ef050347.mkv
Format : Matroska
Format version : Version 4 / Version 2
File size : 1.52 GiB
Duration : 1 h 10 min
Overall bit rate mode : Variable
Overall bit rate : 3 091 kb/s
Encoded date : UTC 2018-07-11 04:32:21
Writing application : mkvmerge v21.0.0 ('Tardigrades Will Inherit The Earth') 64-bit
Writing library : libebml v1.3.5 + libmatroska v1.4.8

Video
ID : 1
Format : AVC
Format/Info : Advanced Video Codec
Format profile : Main@L3.1
Format settings : CABAC / 3 Ref Frames
Format settings, CABAC : Yes
Format settings, RefFrames : 3 frames
Codec ID : V_MPEG4/ISO/AVC
Duration : 1 h 10 min
Bit rate mode : Variable
Bit rate : 3 000 kb/s
Maximum bit rate : 4 500 kb/s
Width : 1 280 pixels
Height : 720 pixels
Display aspect ratio : 16:9
Frame rate mode : Constant
Frame rate : 23.976 (24000/1001) FPS
Color space : YUV
Chroma subsampling : 4:2:0
Bit depth : 8 bits
Scan type : Progressive
Bits/(Pixel*Frame) : 0.136
Stream size : 1.46 GiB (96%)
Writing library : x264 core 148 r2715 7e75228
Encoding settings : cabac=1 / ref=3 / deblock=1:0:0 / analyse=0x1:0x111 / me=umh / subme=10 / psy=1 / psy_rd=1.00:0.00 / mixed_ref=1 / me_range=24 / chroma_me=1 / trellis=2 / 8x8dct=0 / cqm=0 / deadzone=21,11 / fast_pskip=1 / chroma_qp_offset=-2 / threads=8 / lookahead_threads=1 / sliced_threads=0 / nr=0 / decimate=1 / interlaced=0 / bluray_compat=0 / stitchable=1 / constrained_intra=0 / bframes=2 / b_pyramid=0 / b_adapt=2 / b_bias=0 / direct=3 / weightb=1 / open_gop=0 / weightp=2 / keyint=48 / keyint_min=25 / scenecut=0 / intra_refresh=0 / rc_lookahead=48 / rc=2pass / mbtree=1 / bitrate=3000 / ratetol=1.0 / qcomp=0.50 / qpmin=6 / qpmax=51 / qpstep=4 / cplxblur=20.0 / qblur=0.5 / vbv_maxrate=4500 / vbv_bufsize=6000 / nal_hrd=vbr / filler=0 / ip_ratio=1.40 / aq=1:1.00
Default : Yes
Forced : No

Audio
ID : 2
Format : E-AC-3
Format/Info : Enhanced Audio Coding 3
Format settings, Endianness : Big
Codec ID : A_EAC3
Duration : 1 h 10 min
Bit rate mode : Constant
Bit rate : 128 kb/s
Channel(s) : 2 channels
Channel positions : Front: L R
Sampling rate : 48.0 kHz
Frame rate : 187.500 FPS (256 SPF)
Compression mode : Lossy
Stream size : 64.5 MiB (4%)
Title : English
Language : English
Service kind : Complete Main
Default : Yes
Forced : No

Text
ID : 3
Format : UTF-8
Codec ID : S_TEXT/UTF8
Codec ID/Info : UTF-8 Plain Text
Duration : 1 h 9 min
Bit rate : 95 b/s
Count of elements : 1223
Stream size : 48.4 KiB (0%)
Title : SDH
Language : English
Default : Yes
Forced : No





All the Queen's Horses (2017)


All the Queen's Horses (2017)


All the Queen's Horses (2017)


All the Queen's Horses (2017)


All the Queen's Horses (2017)