American Gangster (2007)

Posted By: Without
1080p (FullHD) / BDRip IMDb
American Gangster (2007)

American Gangster (2007)
BDRip 1080p | MKV | 1920x1040 | AVC@8287 kb/s | English DTS@1509 kb/s
Subs: English | 6 channels | 2 h 55 min | 12.0 GB
Genre: Biography, Crime, Drama

In 1970s America, a detective works to bring down the drug empire of Frank Lucas, a heroin kingpin from Manhattan, who is smuggling the drug into the country from the Far East.

IMDB - Nominated for 2 Oscars. Another 12 wins & 35 nominations.


General
American.Gangster.2007.UNRATED.1080p.BluRay.x264-MARS.mkv
Format : Matroska
Format version : Version 4 / Version 2
File size : 12.0 GiB
Duration : 2 h 55 min
Overall bit rate : 9 797 kb/s
Encoded date : UTC 2014-08-11 17:56:50
Writing application : mkvmerge v7.0.0 ('Where We Going') 64bit built on Jun 21 2014 23:29:08
Writing library : libebml v1.3.0 + libmatroska v1.4.1 / Lavf55.33.100

Video
ID : 1
Format : AVC
Format/Info : Advanced Video Codec
Format profile : High@L4.1
Format settings, CABAC : Yes
Format settings, ReFrames : 4 frames
Codec ID : V_MPEG4/ISO/AVC
Duration : 2 h 55 min
Bit rate : 8 287 kb/s
Width : 1 920 pixels
Height : 1 040 pixels
Display aspect ratio : 1.85:1
Frame rate mode : Constant
Frame rate : 23.976 (24000/1001) FPS
Color space : YUV
Chroma subsampling : 4:2:0
Bit depth : 8 bits
Scan type : Progressive
Bits/(Pixel*Frame) : 0.173
Stream size : 9.94 GiB (83%)
Writing library : x264 core 142 r2431M ac76440
Encoding settings : cabac=1 / ref=4 / deblock=1:0:0 / analyse=0x3:0x133 / me=umh / subme=10 / psy=1 / psy_rd=1.00:0.00 / mixed_ref=1 / me_range=24 / chroma_me=1 / trellis=2 / 8x8dct=1 / cqm=0 / deadzone=21,11 / fast_pskip=1 / chroma_qp_offset=-2 / threads=12 / lookahead_threads=2 / sliced_threads=0 / nr=0 / decimate=1 / interlaced=0 / bluray_compat=0 / constrained_intra=0 / bframes=8 / b_pyramid=2 / b_adapt=2 / b_bias=0 / direct=3 / weightb=1 / open_gop=0 / weightp=2 / keyint=250 / keyint_min=23 / scenecut=40 / intra_refresh=0 / rc_lookahead=60 / rc=2pass / mbtree=1 / bitrate=8287 / ratetol=1.0 / qcomp=0.60 / qpmin=0 / qpmax=69 / qpstep=4 / cplxblur=20.0 / qblur=0.5 / ip_ratio=1.40 / aq=1:1.00
Default : Yes
Forced : No
Statistics Tags Issue : mkvmerge v7.0.0 ('Where We Going') 64bit built on Jun 21 2014 23:29:08 2014-06-28 00:26:41 / mkvmerge v7.0.0 ('Where We Going') 64bit built on Jun 21 2014 23:29:08 2014-08-11 17:56:50
FromStats_BitRate : 8285850
FromStats_Duration : 02:55:45.910000000
FromStats_FrameCount : 252849
FromStats_StreamSize : 10922728764

Audio
ID : 2
Format : DTS
Format/Info : Digital Theater Systems
Mode : 16
Format settings, Endianness : Big
Codec ID : A_DTS
Duration : 2 h 55 min
Bit rate mode : Constant
Bit rate : 1 509 kb/s
Channel(s) : 6 channels
Channel positions : Front: L C R, Side: L R, LFE
Sampling rate : 48.0 kHz
Frame rate : 93.750 FPS (512 spf)
Bit depth : 24 bits
Compression mode : Lossy
Stream size : 1.85 GiB (15%)
Language : English
Default : Yes
Forced : No

Text
ID : 3
Format : UTF-8
Codec ID : S_TEXT/UTF8
Codec ID/Info : UTF-8 Plain Text
Duration : 2 h 46 min
Bit rate : 72 b/s
Count of elements : 2404
Stream size : 89.0 KiB (0%)
Title : SDH
Language : English
Default : No
Forced : No

Menu
00:00:00.000 : en:00:00:00.000
00:06:48.950 : en:00:06:48.950
00:14:07.597 : en:00:14:07.597
00:25:43.167 : en:00:25:43.167
00:32:20.272 : en:00:32:20.272
00:37:33.918 : en:00:37:33.918
00:43:49.210 : en:00:43:49.210
00:51:26.125 : en:00:51:26.125
00:57:21.855 : en:00:57:21.855
01:15:31.193 : en:01:15:31.193
01:20:53.724 : en:01:20:53.724
01:29:01.586 : en:01:29:01.586
01:37:22.503 : en:01:37:22.503
01:44:01.986 : en:01:44:01.986
01:55:34.219 : en:01:55:34.219
02:04:59.450 : en:02:04:59.450
02:13:00.973 : en:02:13:00.973
02:20:08.859 : en:02:20:08.859
02:31:52.937 : en:02:31:52.937
02:48:01.822 : en:02:48:01.822


BDRip 1080p Screenshots

American Gangster (2007)

American Gangster (2007)

American Gangster (2007)

American Gangster (2007)

American Gangster (2007)


Come Visit My Blog (•‿•)