History Channel - Ancient Top 10: Series 1 (2016)

Posted By: notbanned
720p (HD) / HDTV IMDb
History Channel - Ancient Top 10: Series 1 (2016)

History Channel - Ancient Top 10: Series 1 (2016)
HDTV | 1280x720 | .MP4/AVC @ 3200 Kbps | 9x~40min | 8.69 GiB
Audio: English AAC 160 kbps, 2 channels | Subs: English
Genre: Documentary

Ancient Top 10 is a smart, fun countdown that details how ancient technology worked, how surprisingly advanced it was, and how it was kind of awesome!
Part 1: Most Lethal Weapons
Throughout human history, mankind has strived to create new and inventive ways of killing. Countries conquered and empires shattered on the backs of the most lethal weapons of the ancient world. From the ancient napalm, Greek Fire, to the weapon that helped the Mongols create the largest ancient empire, the composite bow. The speedy battlefield chariot which changed battle tactics, to the simple yet effective caltrop still in use by militaries today.

Part 2: Secrets of Egypt
Think you know everything about Ancient Egypt? The secrets surrounding this incredible civilization have endured for millennia. The riddles of the Sphinx; Mummification; the Pyramids – the discoveries of Egypt have been among the highest profile archaeological finds in history. But with so many contenders, which Top 10 secret has had the biggest impact on our view of Ancient Egypt?

Part 3: Total Dictators
Greed, genocide, political manipulation and murder most foul – these dictators would stop at nothing to make sure their names went down in history as the greatest rulers to have ever lived. Julius Caesar, Genghis Khan, Attila the Hun, Cleopatra – these are the names you know, with the facts you don’t. Which of these Top 10 tyrants will fight off the competition to become the number one dictator of the ancient world?

Part 4: Ancient Ships
The ancient world is home to some of the most sophisticated and advanced ships the world has ever seen. The designs and construction of these monsters of the oceans appear impossible, but still, these ships sailed the seven seas thousands of years ago! The deadly triremes that helped create the golden age of Athens; the forty, an ancient ship that was the size of a modern day aircraft carrier; the Viking longboat which made the raiders so successful.

Part 5: Romes Greatest Hits
Rome. This incredible civilization forged the world as we know it, creating some of the most technologically advanced engineering of antiquity that is still in use today. Such ingenious inventions include: super powered concrete, aqueducts stretching for miles, and sophisticated mining techniques that were years ahead of their time. Which Top 10 feat of Roman engineering will prove to be the biggest breakthrough?

Part 6: Ancient Greek Tech
The ancient Greeks molded the western world, inventing philosophy, democracy, and…robotics? Pioneering technological inventors, the ancient Greeks created inventions that were seemingly impossible: an ancient death ray constructed by Archimedes, Heron’s automatic doors, Philons ingenious use of robotics. Which of these Top 10 ancient Greek technologies will prove to be the most advanced?

Part 7: Greatest Ancient Metropolises
Behind every great empire there is a central metropolis, driving expansion and governing the great empires that called these cities home; hubs of technology, politics, engineering and massive populations comparable to cities of today. From the grandeur of Rome to the intellectual seat of Alexandria; the incredible Chinese city Xi’an to the legendary home of democracy, Athens, the ancients built cities that would leave their mark on history. But which of these Top 10 ancient metropolises will take the crown as most renowned?

Part 8: Greatest Ancient Monuments
The greatest monuments of the ancient world show more than wealth, they show power. An adversary not to be messed with. From the secrets of Stonehenge to one of the Seven Wonders of the World, the Colossus of Rhodes; the home of ancient spectacle, the great Colosseum to the jaw dropping temple of Karnak. Which of these Top 10 archaeological sites will be crowned the most jaw-dropping monument of the ancient world?

Part 9: Ancient Sieges
The great empires of the ancient world were created through war, and some of the most defining battles were fought through siege warfare. The legendary battle of Troy, the incredibly advanced weapons of Archimedes at the battle of Syracuse, and the beginning of the fall of Rome. These are moments in history that will never be forgotten. But which Top 10 siege will top our list for being the most devastating?

General
Complete name : Ancient.Top.10.Series.1.1of9.Most.Lethal.Weapons.720p.mp4
Format : MPEG-4
Format profile : Base Media
Codec ID : isom (isom)
File size : 986 MiB
Duration : 40 min 57 s
Overall bit rate mode : Variable
Overall bit rate : 3 368 kb/s

Video
ID : 1
Format : AVC
Format/Info : Advanced Video Codec
Format profile : High@L4.1
Format settings, CABAC : Yes
Format settings, ReFrames : 4 frames
Codec ID : avc1
Codec ID/Info : Advanced Video Coding
Duration : 40 min 56 s
Source duration : 40 min 56 s
Bit rate : 3 200 kb/s
Maximum bit rate : 10.3 Mb/s
Width : 1 280 pixels
Height : 720 pixels
Display aspect ratio : 16:9
Frame rate mode : Variable
Frame rate : 23.976 (24000/1001) FPS
Minimum frame rate : 23.974 FPS
Maximum frame rate : 23.981 FPS
Color space : YUV
Chroma subsampling : 4:2:0
Bit depth : 8 bits
Scan type : Progressive
Bits/(Pixel*Frame) : 0.145
Stream size : 938 MiB (95%)
Source stream size : 938 MiB (95%)
Encoding settings : cabac=1 / ref=1 / deblock=1:0:0 / analyse=0x3:0x3 / me=dia / subme=1 / psy=1 / psy_rd=1.00:0.00 / mixed_ref=0 / me_range=16 / chroma_me=1 / trellis=0 / 8x8dct=1 / cqm=0 / deadzone=21,11 / fast_pskip=1 / chroma_qp_offset=0 / threads=6 / lookahead_threads=1 / sliced_threads=0 / nr=0 / decimate=1 / interlaced=0 / bluray_compat=0 / constrained_intra=0 / bframes=3 / b_pyramid=2 / b_adapt=1 / b_bias=0 / direct=1 / weightb=1 / open_gop=0 / weightp=1 / keyint=240 / keyint_min=24 / scenecut=40 / intra_refresh=0 / rc_lookahead=0 / rc=abr / mbtree=0 / bitrate=3200 / ratetol=1.0 / qcomp=0.60 / qpmin=0 / qpmax=69 / qpstep=4 / vbv_maxrate=62500 / vbv_bufsize=78125 / nal_hrd=none / ip_ratio=1.40 / pb_ratio=1.30 / aq=1:1.00
Encoded date : UTC 2017-12-30 22:50:26
Tagged date : UTC 2018-01-05 16:16:06
Color range : Limited
Color primaries : BT.709
Transfer characteristics : BT.709
Matrix coefficients : BT.709

Audio
ID : 2
Format : AAC
Format/Info : Advanced Audio Codec
Format profile : LC
Codec ID : 40
Duration : 40 min 57 s
Bit rate mode : Variable
Bit rate : 160 kb/s
Maximum bit rate : 220 kb/s
Channel(s) : 2 channels
Channel positions : Front: L R
Sampling rate : 48.0 kHz
Frame rate : 46.875 FPS (1024 spf)
Compression mode : Lossy
Stream size : 46.9 MiB (5%)
Language : English
Encoded date : UTC 2018-01-05 16:16:02
Tagged date : UTC 2018-01-05 16:16:06

Text
ID : 3
Format : Timed Text
Codec ID : tx3g
Duration : 40 min 56 s
Bit rate mode : Variable
Bit rate : 204 b/s
Stream size : 61.0 KiB (0%)
Forced : No
Encoded date : UTC 2018-01-05 16:16:06
Tagged date : UTC 2018-01-05 16:16:06


Screenshots:

History Channel - Ancient Top 10: Series 1 (2016)

History Channel - Ancient Top 10: Series 1 (2016)

History Channel - Ancient Top 10: Series 1 (2016)

History Channel - Ancient Top 10: Series 1 (2016)