Anthony Joshua: The Road to Klitschko

Posted By: Tavaz
720p (HD) / WEBRip IMDb
Anthony Joshua: The Road to Klitschko

Anthony Joshua: The Road to Klitschko
WEBRip | MKV | 1280x720 | English | H264 @ 3694 kbps | E-AC-3 @ 128 kbps | 1 h 17 min | 2.06 GiB
Subtitles: French
Genre: Documentary

Follows the IBF World Heavyweight champion over the course of two years as he prepares for the biggest fight of his career, how he rose to the pinnacle of his sport and how he relaxes away from the ring.

Anthony.Joshua.The.Road.To.Klitschko.2017.DOC.SUBFRENCH.720p.WEBRip.x264-TiMELiNE.mkv (2.1 GB)
anthony.joshua.the.road.to.klitschko.2017.doc.subfrench.720p.webrip.x264-timeline.sample.mkv (28.3 MB)



General
Unique ID : 321798094689733735627918272717750020242 (0xF2180F0467CB2754D2ED41DAF8B82892)
Complete name : ./Anthony.Joshua.The.Road.To.Klitschko.2017.DOC.SUBFRENCH.720p.WEBRip.x264-TiMELiNE.mkv
Format : Matroska
Format version : Version 4 / Version 2
File size : 2.06 GiB
Duration : 1 h 17 min
Overall bit rate : 3 824 kb/s
Encoded date : UTC 2018-04-14 12:04:59
Writing application : mkvmerge v22.0.0 ('At The End Of The World') 64-bit
Writing library : libebml v1.3.5 + libmatroska v1.4.8

Video
ID : 1
Format : AVC
Format/Info : Advanced Video Codec
Format profile : High@L4.1
Format settings : CABAC / 5 Ref Frames
Format settings, CABAC : Yes
Format settings, RefFrames : 5 frames
Codec ID : V_MPEG4/ISO/AVC
Duration : 1 h 17 min
Bit rate : 3 695 kb/s
Width : 1 280 pixels
Height : 720 pixels
Display aspect ratio : 16:9
Frame rate mode : Constant
Frame rate : 25.000 FPS
Color space : YUV
Chroma subsampling : 4:2:0
Bit depth : 8 bits
Scan type : Progressive
Bits/(Pixel*Frame) : 0.160
Stream size : 1.99 GiB (97%)
Writing library : x264 core 155 r2901 7d0ff22
Encoding settings : cabac=1 / ref=5 / deblock=1:-3:-3 / analyse=0x3:0x113 / me=hex / subme=8 / psy=1 / psy_rd=1.00:0.00 / mixed_ref=1 / me_range=16 / chroma_me=1 / trellis=2 / 8x8dct=1 / cqm=0 / deadzone=21,11 / fast_pskip=0 / chroma_qp_offset=-2 / threads=12 / lookahead_threads=2 / sliced_threads=0 / nr=0 / decimate=1 / interlaced=0 / bluray_compat=0 / constrained_intra=0 / bframes=3 / b_pyramid=2 / b_adapt=2 / b_bias=0 / direct=3 / weightb=1 / open_gop=0 / weightp=2 / keyint=250 / keyint_min=25 / scenecut=40 / intra_refresh=0 / rc_lookahead=50 / rc=crf / mbtree=1 / crf=18.0 / qcomp=0.60 / qpmin=0 / qpmax=69 / qpstep=4 / ip_ratio=1.40 / aq=3:0.80
Default : Yes
Forced : No

Audio
ID : 2
Format : E-AC-3
Format/Info : Enhanced Audio Coding 3
Format settings, Endianness : Big
Codec ID : A_EAC3
Duration : 1 h 17 min
Bit rate mode : Constant
Bit rate : 128 kb/s
Channel(s) : 2 channels
Channel positions : Front: L R
Sampling rate : 48.0 kHz
Frame rate : 187.500 FPS (256 SPF)
Compression mode : Lossy
Stream size : 70.6 MiB (3%)
Language : English
Service kind : Complete Main
Default : Yes
Forced : No

Text
ID : 3
Format : UTF-8
Codec ID : S_TEXT/UTF8
Codec ID/Info : UTF-8 Plain Text
Duration : 1 h 16 min
Bit rate : 125 b/s
Count of elements : 1410
Stream size : 70.5 KiB (0%)
Language : French
Default : Yes
Forced : No





Anthony Joshua: The Road to Klitschko


Anthony Joshua: The Road to Klitschko


Anthony Joshua: The Road to Klitschko


Anthony Joshua: The Road to Klitschko


Anthony Joshua: The Road to Klitschko