BBC - Can Science Make Me Perfect (2018)

Posted By: notbanned
720p (HD) / HDTV
BBC - Can Science Make Me Perfect (2018)

BBC - Can Science Make Me Perfect (2018)
HDTV | 1280x720 | .MKV/AVC @ 1902 Kbps | 1 h 29 min | 1.26 GiB
Audio: English AAC 125 kbps, 2 channels | Subs: English
Genre: Documentary

Anatomist Alice Roberts embarks on an audacious scientific stunt - to rebuild her own body from scratch, editing out errors left behind by evolution; to create the perfect body. With the help of one of the world's best virtual sculptors, Scott Eaton, and top SFX model maker Sangeet Prabhaker, Alice creates a life-size model of the perfect human body, to be revealed in front of 150 people at London's Science Museum. Through natural selection, animals have evolved incredible biological designs, from supersharp senses to superpowered limbs. Alice is on a hunt to find the very best designs the natural world has to offer and use them to fix the flaws in our own human anatomy. By meeting leading medical and animal experts, Alice finds out what the body's biggest problems are, and how amazing adaptations in the rest of the animal kingdom could provide inspiration for her perfect body. Using incredible CGI to morph her existing body into new forms, she demonstrates how rethinking our bodies could overcome millennia of natural selection. Finally, in an epic reveal, Alice unveils the life-sized model of her perfect self in the Science Museum. There, in front of an audience, Alice meets the 'perfect human' version of herself for the first time. Ambitious, audacious and packed with cutting-edge science, Can Science Make Me Perfect? With Alice Roberts challenges everything you thought you knew about the perfect body.

General
Unique ID : 220154672397013368190569101935687037724 (0xA5A03F627DECA6C612AC842934D4F31C)
Complete name : BBC.Can.Science.Make.Me.Perfect.720p.mkv
Format : Matroska
Format version : Version 4 / Version 2
File size : 1.26 GiB
Duration : 1 h 29 min
Overall bit rate : 2 030 kb/s

Video
ID : 1
Format : AVC
Format/Info : Advanced Video Codec
Format profile : High@L3.1
Format settings, CABAC : Yes
Format settings, ReFrames : 4 frames
Codec ID : V_MPEG4/ISO/AVC
Duration : 1 h 29 min
Bit rate : 1 902 kb/s
Width : 1 280 pixels
Height : 720 pixels
Display aspect ratio : 16:9
Frame rate mode : Constant
Frame rate : 25.000 FPS
Color space : YUV
Chroma subsampling : 4:2:0
Bit depth : 8 bits
Scan type : Progressive
Bits/(Pixel*Frame) : 0.083
Stream size : 1.18 GiB (94%)
Encoding settings : cabac=1 / ref=4 / deblock=1:0:0 / analyse=0x3:0x113 / me=umh / subme=9 / psy=1 / psy_rd=1.00:0.00 / mixed_ref=1 / me_range=24 / chroma_me=1 / trellis=1 / 8x8dct=1 / cqm=0 / deadzone=21,11 / fast_pskip=0 / chroma_qp_offset=-2 / threads=3 / lookahead_threads=1 / sliced_threads=0 / nr=0 / decimate=1 / interlaced=0 / bluray_compat=0 / constrained_intra=0 / bframes=6 / b_pyramid=2 / b_adapt=2 / b_bias=0 / direct=1 / weightb=1 / open_gop=0 / weightp=2 / keyint=250 / keyint_min=25 / scenecut=40 / intra_refresh=0 / rc_lookahead=40 / rc=crf / mbtree=1 / crf=20.0 / qcomp=0.60 / qpmin=0 / qpmax=69 / qpstep=4 / ip_ratio=1.40 / aq=1:1.00
Language : English
Default : Yes
Forced : No
Color range : Limited
Color primaries : BT.709
Transfer characteristics : BT.709
Matrix coefficients : BT.709

Audio
ID : 2
Format : AAC
Format/Info : Advanced Audio Codec
Format profile : LC
Codec ID : A_AAC
Duration : 1 h 29 min
Bit rate : 125 kb/s
Channel(s) : 2 channels
Channel positions : Front: L R
Sampling rate : 48.0 kHz
Frame rate : 46.875 FPS (1024 spf)
Compression mode : Lossy
Delay relative to video : 9 ms
Stream size : 79.8 MiB (6%)
Language : English
Default : Yes
Forced : No

Text
ID : 3
Format : UTF-8
Codec ID : S_TEXT/UTF8
Codec ID/Info : UTF-8 Plain Text
Duration : 1 h 28 min
Bit rate : 108 b/s
Count of elements : 1584
Stream size : 70.7 KiB (0%)
Language : English
Default : No
Forced : No


Screenshots:

BBC - Can Science Make Me Perfect (2018)

BBC - Can Science Make Me Perfect (2018)

BBC - Can Science Make Me Perfect (2018)

BBC - Can Science Make Me Perfect (2018)