BBC Storyville - City of Ghosts (2018)

Posted By: notbanned
720p (HD) / HDTV
BBC Storyville - City of Ghosts (2018)

BBC Storyville - City of Ghosts (2018)
HDTV | 1280x600 | .MKV/AVC @ 1805 Kbps | 1 h 29 min | 1.21 GiB
Audio: English AAC 129 kbps, 2 channels | Subs: English
Genre: Documentary

Tells the story of website Raqqa is Being Slaughtered Silently (RBSS), where a group of young men band together and risk their lives to document and release videos, photos and written testimony of Islamic State atrocities in their home city of Raqqa. City of Ghosts follows the visceral and at times distressing journey of a network of brave young activists who band together to report the stories of atrocities inflicted on the Syrian citizens of Raqqa by ISIS, who invaded their city in 2014. The film reveals the very real dangers for this tight-knit group of citizen journalists, working undercover both inside and outside their homeland. They risk their lives daily to report stories of terror and destruction in the besieged city of Raqqa. The stories are posted on an online site -'Raqqa is Being Slaughtered Silently' - in the hope that they will reach the mainstream media and governments globally. A dramatic and heartbreaking story unfolds, as we witness the huge personal sacrifices the young journalists make to bring the plight of their people to the world.

General
Unique ID : 285891915863709096026691169089044689121 (0xD714C7B8B2A58A4659BF6764196530E1)
Complete name : BBC.Storyville.2018.City.of.Ghosts.720p.mkv
Format : Matroska
Format version : Version 4 / Version 2
File size : 1.21 GiB
Duration : 1 h 29 min
Overall bit rate : 1 936 kb/s

Video
ID : 1
Format : AVC
Format/Info : Advanced Video Codec
Format profile : High@L3.1
Format settings, CABAC : Yes
Format settings, ReFrames : 4 frames
Codec ID : V_MPEG4/ISO/AVC
Duration : 1 h 29 min
Bit rate : 1 805 kb/s
Width : 1 280 pixels
Height : 600 pixels
Display aspect ratio : 2.133
Frame rate mode : Constant
Frame rate : 24.000 FPS
Color space : YUV
Chroma subsampling : 4:2:0
Bit depth : 8 bits
Scan type : Progressive
Bits/(Pixel*Frame) : 0.098
Stream size : 1.13 GiB (93%)
Encoding settings : cabac=1 / ref=4 / deblock=1:0:0 / analyse=0x3:0x113 / me=umh / subme=9 / psy=1 / psy_rd=1.00:0.00 / mixed_ref=1 / me_range=24 / chroma_me=1 / trellis=1 / 8x8dct=1 / cqm=0 / deadzone=21,11 / fast_pskip=0 / chroma_qp_offset=-2 / threads=3 / lookahead_threads=1 / sliced_threads=0 / nr=0 / decimate=1 / interlaced=0 / bluray_compat=0 / constrained_intra=0 / bframes=6 / b_pyramid=2 / b_adapt=2 / b_bias=0 / direct=1 / weightb=1 / open_gop=0 / weightp=2 / keyint=240 / keyint_min=24 / scenecut=40 / intra_refresh=0 / rc_lookahead=40 / rc=crf / mbtree=1 / crf=20.0 / qcomp=0.60 / qpmin=0 / qpmax=69 / qpstep=4 / ip_ratio=1.40 / aq=1:1.00
Language : English
Default : Yes
Forced : No
Color range : Limited
Color primaries : BT.709
Transfer characteristics : BT.709
Matrix coefficients : BT.709

Audio
ID : 2
Format : AAC
Format/Info : Advanced Audio Codec
Format profile : LC
Codec ID : A_AAC
Duration : 1 h 29 min
Bit rate : 129 kb/s
Channel(s) : 2 channels
Channel positions : Front: L R
Sampling rate : 48.0 kHz
Frame rate : 46.875 FPS (1024 spf)
Compression mode : Lossy
Delay relative to video : 9 ms
Stream size : 82.4 MiB (7%)
Language : English
Default : Yes
Forced : No

Text
ID : 3
Format : UTF-8
Codec ID : S_TEXT/UTF8
Codec ID/Info : UTF-8 Plain Text
Duration : 1 h 28 min
Bit rate : 7 b/s
Count of elements : 150
Stream size : 4.74 KiB (0%)
Language : English
Default : No
Forced : No


Screenshots:

BBC Storyville - City of Ghosts (2018)

BBC Storyville - City of Ghosts (2018)

BBC Storyville - City of Ghosts (2018)

BBC Storyville - City of Ghosts (2018)