BBC - The Truth about Meat (2016)

Posted By: notbanned
1080p (FullHD) / HDTV
BBC - The Truth about Meat (2016)

BBC - The Truth about Meat (2016)
HDTV | 1920x1080 | .MKV/AVC @ 3799 Kbps | 58 min 54 s | 1.64 GiB
Audio: English AC3 192 kbps, 2 channels | Subs: None
Genre: Documentary

Fresh or processed, white or red - how does meat measure up? It's been getting a lot of bad press recently with new links to cancer and heart disease. But 98 per cent of us in the UK are still meat eaters. Chris Bavin, a greengrocer by trade and a carnivore by nature, wants to know if he can keep meat in his diet and stay healthy. He teams up with top scientists to put meat under the microscope and examine it as never before. They follow 40 volunteers on a groundbreaking study to find out exactly how much meat is good for us, test whether paying more for chicken makes it any better for us, discover a way to dramatically reduce the health risks associated with processed meats and reveal an unlikely lean supermeat that won't break the bank.

General
Unique ID : 248012115103147255684818187435255871206 (0xBA95655A04495A7AF9238A66B9AD36E6)
Complete name : BBC.The.Truth.about.Meat.1080p.mkv
Format : Matroska
Format version : Version 4 / Version 2
File size : 1.64 GiB
Duration : 58 min 54 s
Overall bit rate : 3 993 kb/s

Video
ID : 1
Format : AVC
Format/Info : Advanced Video Codec
Format profile : High@L4
Format settings, CABAC : Yes
Format settings, ReFrames : 4 frames
Codec ID : V_MPEG4/ISO/AVC
Duration : 58 min 54 s
Bit rate : 3 799 kb/s
Width : 1 920 pixels
Height : 1 080 pixels
Display aspect ratio : 16:9
Frame rate mode : Constant
Frame rate : 25.000 FPS
Standard : Component
Color space : YUV
Chroma subsampling : 4:2:0
Bit depth : 8 bits
Scan type : MBAFF
Scan type, store method : Interleaved fields
Scan order : Top Field First
Bits/(Pixel*Frame) : 0.073
Stream size : 1.56 GiB (95%)
Default : No
Forced : No
Color range : Limited
Color primaries : BT.709
Transfer characteristics : BT.709
Matrix coefficients : BT.709

Audio
ID : 2
Format : AC-3
Format/Info : Audio Coding 3
Format settings, Endianness : Big
Codec ID : A_AC3
Duration : 58 min 54 s
Bit rate mode : Constant
Bit rate : 192 kb/s
Channel(s) : 2 channels
Channel positions : Front: L R
Sampling rate : 48.0 kHz
Frame rate : 31.250 FPS (1536 spf)
Bit depth : 16 bits
Compression mode : Lossy
Stream size : 80.9 MiB (5%)
Language : English
Service kind : Complete Main
Default : Yes
Forced : No


Screenshots:

BBC - The Truth about Meat (2016)

BBC - The Truth about Meat (2016)

BBC - The Truth about Meat (2016)

BBC - The Truth about Meat (2016)