Bella (2006)

Posted By: Tavaz
720p (HD) / WEB-DL IMDb
Bella (2006)

Bella (2006)
WEB-DL | MKV | 1280x720 | English | H264 @ 4063 kbps | E-AC-3 @ 224 kbps | 1 h 31 min | 2.75 GiB
Subtitles: English
Genre: Drama, Romance

An international soccer star is on his way to sign a multimillion dollar contract when something happens that brings his career to an abrupt end. A beautiful waitress, struggling to make it in New York City, discovers something about herself that she's unprepared for. In one irreversible moment, their lives are turned upside down.

0836de38551547218927d1ef822066c7.mkv (2.7 GB)



General
Unique ID : 315210262755726847384604877424393667782 (0xED2349D36622F0574875361F050344C6)
Complete name : ./0836de38551547218927d1ef822066c7.mkv
Format : Matroska
Format version : Version 4 / Version 2
File size : 2.75 GiB
Duration : 1 h 31 min
Overall bit rate mode : Variable
Overall bit rate : 4 287 kb/s
Encoded date : UTC 2018-05-26 19:13:50
Writing application : mkvmerge v21.0.0 ('Tardigrades Will Inherit The Earth') 64-bit
Writing library : libebml v1.3.5 + libmatroska v1.4.8

Video
ID : 1
Format : AVC
Format/Info : Advanced Video Codec
Format profile : High@L3.1
Format settings : CABAC / 5 Ref Frames
Format settings, CABAC : Yes
Format settings, RefFrames : 5 frames
Codec ID : V_MPEG4/ISO/AVC
Duration : 1 h 31 min
Bit rate mode : Variable
Bit rate : 4 063 kb/s
Maximum bit rate : 4 500 kb/s
Width : 1 280 pixels
Height : 720 pixels
Display aspect ratio : 16:9
Frame rate mode : Constant
Frame rate : 23.976 (24000/1001) FPS
Color space : YUV
Chroma subsampling : 4:2:0
Bit depth : 8 bits
Scan type : Progressive
Bits/(Pixel*Frame) : 0.184
Stream size : 2.60 GiB (95%)
Writing library : x264 core 148 r2623 d5b2374
Encoding settings : cabac=1 / ref=5 / deblock=1:-1:-1 / analyse=0x3:0x133 / me=umh / subme=9 / psy=1 / psy_rd=1.00:0.15 / mixed_ref=1 / me_range=24 / chroma_me=1 / trellis=2 / 8x8dct=1 / cqm=0 / deadzone=21,11 / fast_pskip=1 / chroma_qp_offset=-3 / threads=22 / lookahead_threads=3 / sliced_threads=0 / nr=150 / decimate=1 / interlaced=0 / bluray_compat=0 / constrained_intra=0 / bframes=8 / b_pyramid=2 / b_adapt=2 / b_bias=0 / direct=3 / weightb=1 / open_gop=0 / weightp=2 / keyint=120 / keyint_min=61 / scenecut=0 / intra_refresh=0 / rc_lookahead=120 / rc=crf / mbtree=1 / crf=18.0 / qcomp=0.60 / qpmin=0 / qpmax=69 / qpstep=4 / vbv_maxrate=4500 / vbv_bufsize=17500 / crf_max=0.0 / nal_hrd=vbr / filler=0 / ip_ratio=1.40 / aq=3:1.00
Default : Yes
Forced : No
Color range : Limited
Color primaries : BT.709
Transfer characteristics : BT.709
Matrix coefficients : BT.709

Audio
ID : 2
Format : E-AC-3
Format/Info : Enhanced Audio Coding 3
Format settings, Endianness : Big
Codec ID : A_EAC3
Duration : 1 h 31 min
Bit rate mode : Constant
Bit rate : 224 kb/s
Channel(s) : 2 channels
Channel positions : Front: L R
Sampling rate : 48.0 kHz
Frame rate : 187.500 FPS (256 SPF)
Compression mode : Lossy
Stream size : 147 MiB (5%)
Language : English
Service kind : Complete Main
Default : Yes
Forced : No

Text #1
ID : 3
Format : UTF-8
Codec ID : S_TEXT/UTF8
Codec ID/Info : UTF-8 Plain Text
Duration : 1 h 30 min
Bit rate : 42 b/s
Count of elements : 1051
Stream size : 28.1 KiB (0%)
Language : English
Default : No
Forced : No

Text #2
ID : 4
Format : UTF-8
Codec ID : S_TEXT/UTF8
Codec ID/Info : UTF-8 Plain Text
Duration : 1 h 31 min
Bit rate : 45 b/s
Count of elements : 1137
Stream size : 30.2 KiB (0%)
Title : SDH
Language : English
Default : No
Forced : No

Menu
00:00:00.000 : en:Studio logos
00:00:41.000 : en:Opening credits
00:02:16.000 : en:Jose enjoys playing soccer with kids, street
00:04:58.000 : en:Francisco makes Jose practice for his interview with the media, Jose's car
00:06:27.000 : en:Manny grills the employees & checks the food & decor of his restaurant, Manny's restaurant
00:08:06.000 : en:Nina is anxious about her health, supermarket & street
00:09:10.000 : en:Manny complains to Jose about Nina's carelessness at work, kitchen
00:10:21.000 : en:Jose remembers a traumatic past incident, Manny's restaurant
00:12:29.000 : en:Manny fires Nina
00:16:42.000 : en:Manny is upset by Jose's absence from the restaurant
00:17:58.000 : en:Jose tells Manny about spending the day with Nina
00:20:25.000 : en:Nina has a strange encounter with a blind homeless man, street
00:23:21.000 : en:Nina resents Jose's accidental meeting with his ex
00:25:20.000 : en:Jose takes Nina to Frannie's restaurant where she tells him about her decision, Frannie's restaurant
00:27:43.000 : en:Nina shares her story of dealing with an unplanned pregnancy, Frannie's restaurant & clinic
00:30:37.000 : en:Manny's restaurant descends into chaos
00:32:14.000 : en:Jose makes Manny feel guilty about his behavior, Manny's restaurant
00:37:34.000 : en:Jose & Nina start their journey & share a light conversation, streets & train
00:40:10.000 : en:Jose asks Nina about her baby's adoption, train
00:42:33.000 : en:Nina is given a warm welcome by Jose's father, garden
00:46:35.000 : en:Jose tells Nina about his accident, garage & road
00:51:32.000 : en:Nina comforts Jose to ease his guilt about the accident, garage
00:53:22.000 : en:Jose's mother makes Nina comfortable
00:54:39.000 : en:Jose's mother enquires about his relationship with Nina, Jose's house
00:57:17.000 : en:The family welcomes Veronica & talks about Manny over the meal, Jose's house
01:02:23.000 : en:Jose's mother shares the truth about Manny's adoption, Jose's house
01:03:33.000 : en:Jose's father thanks Nina for making Jose feel better, Jose's house
01:07:29.000 : en:Nina thanks Jose for his family's kindness, street & beach
01:09:42.000 : en:Nina shares her traumatic & emotionally disturbed childhood with Jose, beach
01:13:45.000 : en:Nina tells Jose she wants to bring a child into the world out of love, beach
01:15:52.000 : en:Nina & Jose go their separate ways, street & train
01:17:40.000 : en:Manny & Jose resolve their feud, Manny's restaurant
01:19:50.000 : en:Jose enjoys playing with Bella, sea side
01:22:00.000 : en:Nina reunites with her daughter & Jose & they share an emotional moment, sea side
01:26:18.000 : en:Closing credits





Bella (2006)


Bella (2006)


Bella (2006)


Bella (2006)


Bella (2006)