Blade Runner 2049 (2017)

Posted By: JohnSmith
SD / WEB-DL IMDb
Blade Runner 2049 (2017)

Blade Runner 2049 (2017)
HDRip | AVI / XviD@1130 kb/s | 720x304 | 2h 43mn | 1.74 GB
English: AC3, 384 kb/s (6 ch) | Subtitles: English
WEB-DL 720p | MKV / AVC@3984 kb/s | 1280x530 | 2h 43mn | 5.09 GB
English: AC3, 384 kb/s (6 ch) | Subtitles: English
WEB-DL 1080p | MKV / AVC@4466 kb/s | 1920x796 | 2h 43mn | 5.65 GB
English: AC3, 384 kb/s (6 ch) | Subtitles: English
WEB-DL 1080p | MKV / AVC@3130 kb/s | 1920x800 | 2h 43mn | 4.31 GB
English: AC3, 640 kb/s (6 ch) | Subtitles: English
Genre: Sci-Fi | Thriller

Thirty years after the events of the first film, a new blade runner, LAPD Officer K (Ryan Gosling), unearths a long-buried secret that has the potential to plunge what's left of society into chaos. K's discovery leads him on a quest to find Rick Deckard (Harrison Ford), a former LAPD blade runner who has been missing for 30 years.

IMDB - Top Rated Movies #66 | 23 wins & 54 nominations.



General
Complete name : G:\Blade Runner 2049.HDRip.XviD.AC3-EVO\Blade Runner 2049.HDRip.XviD.AC3-EVO.avi
Format : AVI
Format/Info : Audio Video Interleave
File size : 1.74 GiB
Duration : 2 h 43 min
Overall bit rate : 1 525 kb/s
Writing library : VirtualDub build 32593/release

Video
ID : 0
Format : MPEG-4 Visual
Format profile : Advanced Simple@L5
Format settings, BVOP : 2
Format settings, QPel : No
Format settings, GMC : No warppoints
Format settings, Matrix : Default (H.263)
Muxing mode : Packed bitstream
Codec ID : XVID
Codec ID/Hint : XviD
Duration : 2 h 43 min
Bit rate : 1 131 kb/s
Width : 720 pixels
Height : 304 pixels
Display aspect ratio : 2.35:1
Frame rate : 23.976 (24000/1001) FPS
Color space : YUV
Chroma subsampling : 4:2:0
Bit depth : 8 bits
Scan type : Progressive
Compression mode : Lossy
Bits/(Pixel*Frame) : 0.216
Stream size : 1.29 GiB (74%)
Writing library : XviD 66

Audio
ID : 1
Format : AC-3
Format/Info : Audio Coding 3
Format settings, Endianness : Big
Codec ID : 2000
Duration : 2 h 43 min
Bit rate mode : Constant
Bit rate : 384 kb/s
Channel(s) : 6 channels
Channel positions : Front: L C R, Side: L R, LFE
Sampling rate : 48.0 kHz
Frame rate : 31.250 FPS (1536 spf)
Bit depth : 16 bits
Compression mode : Lossy
Stream size : 449 MiB (25%)
Alignment : Aligned on interleaves
Interleave, duration : 42 ms (1.00 video frame)
Interleave, preload duratio : 512 ms
Service kind : Complete Main





General
Unique ID : 207736575712552896783770054738781834934 (0x9C489BF2A039EAAC975B125ACD8E8EB6)
Complete name : G:\Blade Runner 2049.720p.WEB-DL.H264.AC3-EVO\Blade Runner 2049.720p.WEB-DL.H264.AC3-EVO.mkv
Format : Matroska
Format version : Version 4 / Version 2
File size : 5.09 GiB
Duration : 2 h 43 min
Overall bit rate : 4 457 kb/s
Movie name : EVO
Encoded date : UTC 2017-12-25 15:51:00
Writing application : mkvmerge v6.7.0 ('Back to the Ground') 64bit built on Jan 8 2014 15:10:52
Writing library : libebml v1.3.0 + libmatroska v1.4.1

Video
ID : 2
Format : AVC
Format/Info : Advanced Video Codec
Format profile : Main@L3.1
Format settings, CABAC : No
Format settings, ReFrames : 2 frames
Codec ID : V_MPEG4/ISO/AVC
Duration : 2 h 43 min
Bit rate : 3 984 kb/s
Width : 1 280 pixels
Height : 530 pixels
Display aspect ratio : 2.40:1
Frame rate mode : Constant
Frame rate : 23.976 FPS
Color space : YUV
Chroma subsampling : 4:2:0
Bit depth : 8 bits
Scan type : Progressive
Bits/(Pixel*Frame) : 0.245
Stream size : 4.55 GiB (89%)
Language : English
Default : Yes
Forced : No
Color range : Limited
Color primaries : BT.709
Transfer characteristics : BT.709
Matrix coefficients : BT.709

Audio
ID : 3
Format : AC-3
Format/Info : Audio Coding 3
Format settings, Endianness : Big
Codec ID : A_AC3
Duration : 2 h 43 min
Bit rate mode : Constant
Bit rate : 384 kb/s
Channel(s) : 6 channels
Channel positions : Front: L C R, Side: L R, LFE
Sampling rate : 48.0 kHz
Frame rate : 31.250 FPS (1536 spf)
Bit depth : 16 bits
Compression mode : Lossy
Stream size : 449 MiB (9%)
Language : English
Service kind : Complete Main
Default : Yes
Forced : No

Text
ID : 1
Format : UTF-8
Codec ID : S_TEXT/UTF8
Codec ID/Info : UTF-8 Plain Text
Language : English
Default : Yes
Forced : No

Menu
00:00:00.000 : en:1
00:12:35.171 : en:2
00:23:28.282 : en:3
00:36:59.885 : en:4
00:42:49.317 : en:5
00:49:23.502 : en:6
00:58:34.553 : en:7
01:04:09.679 : en:8
01:15:46.292 : en:9
01:25:11.482 : en:10
01:36:14.061 : en:11
01:50:54.107 : en:12
02:01:35.873 : en:13
02:08:39.379 : en:14
02:16:41.486 : en:15
02:27:45.733 : en:16





General
Unique ID : 242756369809109899850383836212904216547 (0xB6A12D1A2C28D74484AA2E540CFE47E3)
Complete name : G:\Blade Runner 2049.1080p.WEB-DL.H264.AC3-EVO\Blade Runner 2049.1080p.WEB-DL.H264.AC3-EVO.mkv
Format : Matroska
Format version : Version 4 / Version 2
File size : 5.65 GiB
Duration : 2 h 43 min
Overall bit rate : 4 948 kb/s
Movie name : EVO
Encoded date : UTC 2017-12-25 16:22:55
Writing application : mkvmerge v6.7.0 ('Back to the Ground') 64bit built on Jan 8 2014 15:10:52
Writing library : libebml v1.3.0 + libmatroska v1.4.1

Video
ID : 2
Format : AVC
Format/Info : Advanced Video Codec
Format profile : High@L4
Format settings, CABAC : Yes
Format settings, ReFrames : 5 frames
Codec ID : V_MPEG4/ISO/AVC
Duration : 2 h 43 min
Bit rate : 4 466 kb/s
Width : 1 920 pixels
Height : 796 pixels
Display aspect ratio : 2.40:1
Frame rate mode : Constant
Frame rate : 23.976 FPS
Color space : YUV
Chroma subsampling : 4:2:0
Bit depth : 8 bits
Scan type : Progressive
Bits/(Pixel*Frame) : 0.122
Stream size : 5.10 GiB (90%)
Language : English
Default : Yes
Forced : No
Color range : Limited
Color primaries : BT.709
Transfer characteristics : BT.709
Matrix coefficients : BT.709

Audio
ID : 1
Format : AC-3
Format/Info : Audio Coding 3
Format settings, Endianness : Big
Codec ID : A_AC3
Duration : 2 h 43 min
Bit rate mode : Constant
Bit rate : 384 kb/s
Channel(s) : 6 channels
Channel positions : Front: L C R, Side: L R, LFE
Sampling rate : 48.0 kHz
Frame rate : 31.250 FPS (1536 spf)
Bit depth : 16 bits
Compression mode : Lossy
Stream size : 449 MiB (8%)
Language : English
Service kind : Complete Main
Default : Yes
Forced : No

Text
ID : 3
Format : UTF-8
Codec ID : S_TEXT/UTF8
Codec ID/Info : UTF-8 Plain Text
Language : English
Default : Yes
Forced : No

Menu
00:00:00.000 : en:1
00:12:35.171 : en:2
00:23:28.282 : en:3
00:36:59.885 : en:4
00:42:49.316 : en:5
00:49:23.500 : en:6
00:58:34.550 : en:7
01:04:09.676 : en:8
01:15:46.289 : en:9
01:25:11.478 : en:10
01:36:14.056 : en:11
01:50:54.102 : en:12
02:01:35.867 : en:13
02:08:39.373 : en:14
02:16:41.480 : en:15
02:27:45.726 : en:16





General
Unique ID : 205771447425364985227641958945150109026 (0x9ACE23A48DC489B5AF6793D73D5A8562)
Complete name : A:\Blade.Runner.2049.2017.1080p.AMZN.WEB-DL.DD+5.1.H.264-SiGMA ~ 4.3 GB\Blade.Runner.2049.1080p.AMZN.WEB-DL.DD+5.1.H.264-SiGMA.mkv
Format : Matroska
Format version : Version 4 / Version 2
File size : 4.31 GiB
Duration : 2 h 43 min
Overall bit rate mode : Variable
Overall bit rate : 3 768 kb/s
Encoded date : UTC 2017-12-26 19:35:54
Writing application : mkvmerge v17.0.0 ('Be Ur Friend') 64-bit
Writing library : libebml v1.3.5 + libmatroska v1.4.8

Video
ID : 1
Format : AVC
Format/Info : Advanced Video Codec
Format profile : High@L4
Format settings, CABAC : Yes
Format settings, ReFrames : 4 frames
Codec ID : V_MPEG4/ISO/AVC
Duration : 2 h 43 min
Bit rate mode : Variable
Bit rate : 3 126 kb/s
Maximum bit rate : 15.0 Mb/s
Width : 1 920 pixels
Height : 800 pixels
Display aspect ratio : 2.40:1
Frame rate mode : Constant
Frame rate : 23.976 (24000/1001) FPS
Color space : YUV
Chroma subsampling : 4:2:0
Bit depth : 8 bits
Scan type : Progressive
Bits/(Pixel*Frame) : 0.085
Stream size : 3.58 GiB (83%)
Default : Yes
Forced : No
Color range : Limited
Color primaries : BT.709
Transfer characteristics : BT.709
Matrix coefficients : BT.709

Audio
ID : 2
Format : E-AC-3
Format/Info : Enhanced Audio Coding 3
Format settings, Endianness : Big
Codec ID : A_EAC3
Duration : 2 h 43 min
Bit rate mode : Constant
Bit rate : 640 kb/s
Channel(s) : 6 channels
Channel positions : Front: L C R, Side: L R, LFE
Sampling rate : 48.0 kHz
Frame rate : 187.500 FPS (256 spf)
Compression mode : Lossy
Stream size : 750 MiB (17%)
Language : English
Service kind : Complete Main
Default : Yes
Forced : No

Text
ID : 3
Format : UTF-8
Codec ID : S_TEXT/UTF8
Codec ID/Info : UTF-8 Plain Text
Duration : 2 h 29 min
Bit rate : 29 b/s
Count of elements : 1354
Stream size : 32.5 KiB (0%)
Language : English
Default : No
Forced : No




Screenshots HDRip

Blade Runner 2049 (2017)

Blade Runner 2049 (2017)

Blade Runner 2049 (2017)


Screenshots WEB-DL 720p

Blade Runner 2049 (2017)

Blade Runner 2049 (2017)

Blade Runner 2049 (2017)


Screenshots WEB-DL 1080p

Blade Runner 2049 (2017)

Blade Runner 2049 (2017)

Blade Runner 2049 (2017)


Screenshots WEB-DL 1080p Amazon

Blade Runner 2049 (2017)

Blade Runner 2049 (2017)

Blade Runner 2049 (2017)