Braveheart (1995) [4K, Ultra HD]

Posted By: Without
2160p (4k UHD) / BluRay Remux IMDb
Braveheart (1995) [4K, Ultra HD]

Braveheart (1995)
4K UHD Remux | MKV | 3840x2160 | HEVC@51.6 Mb/s | English TrueHD+Atmos@5106 kb/s Kbps (8 ch)
English AC3@640 Kbps (6 ch) + English AC3@224 Kbps (Commentary) (2 ch) | 2 h 57 min | 72.8 GB
Subs: English, Arabic, Bulgarian, Chinese, Croatian, Czech, Danish, Dutch, Estonian
Finnish, French, German, Greek, Hebrew, Hungarian, Icelandic, Indonesian, Italian
Japanese, Korean, Latvian, Lithuanian, Norwegian, Polish, Portuguese, Romanian
Russian, Slovenian, Spanish, Swedish, Thai, Turkish
Genre: Biography, Drama, History

When his secret bride is executed for assaulting an English soldier who tried to rape her, Sir William Wallace begins a revolt against King Edward I of England.

IMDB - Top Rated Movies #75 | Won 5 Oscars. Another 26 wins & 28 nominations.


General
Braveheart.1995.2160p.UHD.BluRay.REMUX.HDR.HEVC.Atmos-EPSiLON.mkv
Format : Matroska
Format version : Version 4 / Version 2
File size : 72.8 GiB
Duration : 2 h 57 min
Overall bit rate mode : Variable
Overall bit rate : 58.6 Mb/s
Movie name : Braveheart (1995)
Encoded date : UTC 2018-05-15 08:41:42
Writing application : mkvmerge v22.0.0 ('At The End Of The World') 64-bit
Writing library : libebml v1.3.5 + libmatroska v1.4.8

Video
ID : 1
Format : HEVC
Format/Info : High Efficiency Video Coding
Commercial name : HDR10
Format profile : Main 10@L5.1@High
Codec ID : V_MPEGH/ISO/HEVC
Duration : 2 h 57 min
Bit rate : 51.6 Mb/s
Width : 3 840 pixels
Height : 2 160 pixels
Display aspect ratio : 16:9
Frame rate mode : Constant
Frame rate : 23.976 (24000/1001) FPS
Color space : YUV
Chroma subsampling : 4:2:0 (Type 2)
Bit depth : 10 bits
Bits/(Pixel*Frame) : 0.259
Stream size : 64.0 GiB (88%)
Title : MPEG-H HEVC Video / 51573 kbps / 2160p / 23.976 fps / 16:9 / Main 10 Profile 5.1 High / 4:2:0 / 10 bits / HDR / BT.2020
Language : English
Default : Yes
Forced : No
Color range : Limited
Color primaries : BT.2020
Transfer characteristics : PQ
Matrix coefficients : BT.2020 non-constant
Mastering display color primaries : BT.709
Mastering display luminance : min: 0.0001 cd/m2, max: 1000 cd/m2

Audio #1
ID : 2
Format : TrueHD
Format profile : TrueHD+Atmos / TrueHD
Codec ID : A_TRUEHD
Duration : 2 h 57 min
Bit rate mode : Variable
Bit rate : 5 106 kb/s
Maximum bit rate : 8 013 kb/s
Channel(s) : Object Based / 8 channels
Channel positions : Object Based / Front: L C R, Side: L R, Back: L R, LFE
Sampling rate : / 48.0 kHz
Frame rate : 1 200.000 FPS (40 SPF)
Compression mode : Lossless
Delay relative to video : 2 s 168 ms
Stream size : 6.34 GiB (9%)
Title : Dolby Atmos/TrueHD Audio / 7.1-Atmos / 48 kHz / 5746 kbps / 24-bit
Language : English
Default : Yes
Forced : No

Audio #2
ID : 3
Format : AC-3
Format/Info : Audio Coding 3
Codec ID : A_AC3
Duration : 2 h 57 min
Bit rate mode : Constant
Bit rate : 640 kb/s
Channel(s) : 6 channels
Channel positions : Front: L C R, Side: L R, LFE
Sampling rate : 48.0 kHz
Frame rate : 31.250 FPS (1536 SPF)
Bit depth : 16 bits
Compression mode : Lossy
Delay relative to video : 2 s 168 ms
Stream size : 813 MiB (1%)
Title : Compatibility Track / Dolby Digital Audio / 5.1-EX / 48 kHz / 640 kbps
Language : English
Service kind : Complete Main
Default : No
Forced : No

Audio #3
ID : 4
Format : AC-3
Format/Info : Audio Coding 3
Codec ID : A_AC3
Duration : 2 h 57 min
Bit rate mode : Constant
Bit rate : 224 kb/s
Channel(s) : 2 channels
Channel positions : Front: L R
Sampling rate : 48.0 kHz
Frame rate : 31.250 FPS (1536 SPF)
Bit depth : 16 bits
Compression mode : Lossy
Stream size : 285 MiB (0%)
Title : Commentary by director/actor Mel Gibson
Language : English
Service kind : Complete Main
Default : No
Forced : No

Text #1
ID : 5
Format : PGS
Codec ID : S_HDMV/PGS
Codec ID/Info : Picture based subtitle format used on BDs/HD-DVDs
Duration : 2 h 48 min
Bit rate : 18.9 kb/s
Count of elements : 2520
Stream size : 22.8 MiB (0%)
Language : English
Default : No
Forced : No

Text #2
ID : 6
Format : PGS
Codec ID : S_HDMV/PGS
Codec ID/Info : Picture based subtitle format used on BDs/HD-DVDs
Duration : 2 h 48 min
Bit rate : 21.6 kb/s
Count of elements : 2846
Stream size : 26.0 MiB (0%)
Title : SDH
Language : English
Default : No
Forced : No

Text #3
ID : 7
Format : PGS
Codec ID : S_HDMV/PGS
Codec ID/Info : Picture based subtitle format used on BDs/HD-DVDs
Duration : 2 h 48 min
Bit rate : 14.2 kb/s
Count of elements : 2026
Stream size : 17.2 MiB (0%)
Language : Arabic
Default : No
Forced : No

Text #4
ID : 8
Format : PGS
Codec ID : S_HDMV/PGS
Codec ID/Info : Picture based subtitle format used on BDs/HD-DVDs
Duration : 2 h 48 min
Bit rate : 18.8 kb/s
Count of elements : 1904
Stream size : 22.8 MiB (0%)
Language : Bulgarian
Default : No
Forced : No

Text #5
ID : 9
Format : PGS
Codec ID : S_HDMV/PGS
Codec ID/Info : Picture based subtitle format used on BDs/HD-DVDs
Duration : 2 h 49 min
Bit rate : 18.7 kb/s
Count of elements : 2701
Stream size : 22.7 MiB (0%)
Title : Traditional (Hong Kong)
Language : Chinese
Default : No
Forced : No

Text #6
ID : 10
Format : PGS
Codec ID : S_HDMV/PGS
Codec ID/Info : Picture based subtitle format used on BDs/HD-DVDs
Duration : 2 h 48 min
Bit rate : 18.4 kb/s
Count of elements : 2028
Stream size : 22.2 MiB (0%)
Title : Traditional (Taiwan)
Language : Chinese
Default : No
Forced : No

Text #7
ID : 11
Format : PGS
Codec ID : S_HDMV/PGS
Codec ID/Info : Picture based subtitle format used on BDs/HD-DVDs
Duration : 2 h 49 min
Bit rate : 17.6 kb/s
Count of elements : 2010
Stream size : 21.4 MiB (0%)
Language : Croatian
Default : No
Forced : No

Text #8
ID : 12
Format : PGS
Codec ID : S_HDMV/PGS
Codec ID/Info : Picture based subtitle format used on BDs/HD-DVDs
Duration : 2 h 48 min
Bit rate : 20.4 kb/s
Count of elements : 2022
Stream size : 24.7 MiB (0%)
Language : Czech
Default : No
Forced : No

Text #9
ID : 13
Format : PGS
Codec ID : S_HDMV/PGS
Codec ID/Info : Picture based subtitle format used on BDs/HD-DVDs
Duration : 2 h 48 min
Bit rate : 20.6 kb/s
Count of elements : 2020
Stream size : 25.0 MiB (0%)
Language : Danish
Default : No
Forced : No

Text #10
ID : 14
Format : PGS
Codec ID : S_HDMV/PGS
Codec ID/Info : Picture based subtitle format used on BDs/HD-DVDs
Duration : 2 h 48 min
Bit rate : 19.5 kb/s
Count of elements : 1942
Stream size : 23.6 MiB (0%)
Language : Dutch
Default : No
Forced : No

Text #11
ID : 15
Format : PGS
Codec ID : S_HDMV/PGS
Codec ID/Info : Picture based subtitle format used on BDs/HD-DVDs
Duration : 2 h 48 min
Bit rate : 20.5 kb/s
Count of elements : 1975
Stream size : 24.8 MiB (0%)
Language : Estonian
Default : No
Forced : No

Text #12
ID : 16
Format : PGS
Codec ID : S_HDMV/PGS
Codec ID/Info : Picture based subtitle format used on BDs/HD-DVDs
Duration : 2 h 48 min
Bit rate : 22.8 kb/s
Count of elements : 2024
Stream size : 27.5 MiB (0%)
Language : Finnish
Default : No
Forced : No

Text #13
ID : 17
Format : PGS
Codec ID : S_HDMV/PGS
Codec ID/Info : Picture based subtitle format used on BDs/HD-DVDs
Duration : 2 h 49 min
Bit rate : 19.7 kb/s
Count of elements : 2536
Stream size : 23.9 MiB (0%)
Title : Canadian
Language : French
Default : No
Forced : No

Text #14
ID : 18
Format : PGS
Codec ID : S_HDMV/PGS
Codec ID/Info : Picture based subtitle format used on BDs/HD-DVDs
Duration : 2 h 55 min
Bit rate : 16.4 kb/s
Count of elements : 2306
Stream size : 20.6 MiB (0%)
Title : Parisian
Language : French
Default : No
Forced : No

Text #15
ID : 19
Format : PGS
Codec ID : S_HDMV/PGS
Codec ID/Info : Picture based subtitle format used on BDs/HD-DVDs
Duration : 2 h 48 min
Bit rate : 22.7 kb/s
Count of elements : 2018
Stream size : 27.4 MiB (0%)
Language : German
Default : No
Forced : No

Text #16
ID : 20
Format : PGS
Codec ID : S_HDMV/PGS
Codec ID/Info : Picture based subtitle format used on BDs/HD-DVDs
Duration : 2 h 48 min
Bit rate : 19.5 kb/s
Count of elements : 2028
Stream size : 23.6 MiB (0%)
Language : Greek
Default : No
Forced : No

Text #17
ID : 21
Format : PGS
Codec ID : S_HDMV/PGS
Codec ID/Info : Picture based subtitle format used on BDs/HD-DVDs
Duration : 2 h 48 min
Bit rate : 12.8 kb/s
Count of elements : 2028
Stream size : 15.5 MiB (0%)
Language : Hebrew
Default : No
Forced : No

Text #18
ID : 22
Format : PGS
Codec ID : S_HDMV/PGS
Codec ID/Info : Picture based subtitle format used on BDs/HD-DVDs
Duration : 2 h 48 min
Bit rate : 20.6 kb/s
Count of elements : 2020
Stream size : 24.9 MiB (0%)
Language : Hungarian
Default : No
Forced : No

Text #19
ID : 23
Format : PGS
Codec ID : S_HDMV/PGS
Codec ID/Info : Picture based subtitle format used on BDs/HD-DVDs
Duration : 2 h 48 min
Bit rate : 22.1 kb/s
Count of elements : 2028
Stream size : 26.7 MiB (0%)
Language : Icelandic
Default : No
Forced : No

Text #20
ID : 24
Format : PGS
Codec ID : S_HDMV/PGS
Codec ID/Info : Picture based subtitle format used on BDs/HD-DVDs
Duration : 2 h 48 min
Bit rate : 22.4 kb/s
Count of elements : 1927
Stream size : 27.1 MiB (0%)
Language : Indonesian
Default : No
Forced : No

Text #21
ID : 25
Format : PGS
Codec ID : S_HDMV/PGS
Codec ID/Info : Picture based subtitle format used on BDs/HD-DVDs
Duration : 2 h 48 min
Bit rate : 20.9 kb/s
Count of elements : 2022
Stream size : 25.3 MiB (0%)
Language : Italian
Default : No
Forced : No

Text #22
ID : 26
Format : PGS
Codec ID : S_HDMV/PGS
Codec ID/Info : Picture based subtitle format used on BDs/HD-DVDs
Duration : 2 h 48 min
Bit rate : 13.3 kb/s
Count of elements : 2250
Stream size : 16.1 MiB (0%)
Language : Japanese
Default : No
Forced : No

Text #23
ID : 27
Format : PGS
Codec ID : S_HDMV/PGS
Codec ID/Info : Picture based subtitle format used on BDs/HD-DVDs
Duration : 2 h 49 min
Bit rate : 16.6 kb/s
Count of elements : 2054
Stream size : 20.2 MiB (0%)
Language : Korean
Default : No
Forced : No

Text #24
ID : 28
Format : PGS
Codec ID : S_HDMV/PGS
Codec ID/Info : Picture based subtitle format used on BDs/HD-DVDs
Duration : 2 h 48 min
Bit rate : 19.9 kb/s
Count of elements : 2028
Stream size : 24.1 MiB (0%)
Language : Latvian
Default : No
Forced : No

Text #25
ID : 29
Format : PGS
Codec ID : S_HDMV/PGS
Codec ID/Info : Picture based subtitle format used on BDs/HD-DVDs
Duration : 2 h 48 min
Bit rate : 19.6 kb/s
Count of elements : 1978
Stream size : 23.7 MiB (0%)
Language : Lithuanian
Default : No
Forced : No

Text #26
ID : 30
Format : PGS
Codec ID : S_HDMV/PGS
Codec ID/Info : Picture based subtitle format used on BDs/HD-DVDs
Duration : 2 h 48 min
Bit rate : 20.5 kb/s
Count of elements : 2020
Stream size : 24.8 MiB (0%)
Language : Norwegian
Default : No
Forced : No

Text #27
ID : 31
Format : PGS
Codec ID : S_HDMV/PGS
Codec ID/Info : Picture based subtitle format used on BDs/HD-DVDs
Duration : 2 h 49 min
Bit rate : 21.4 kb/s
Count of elements : 2028
Stream size : 26.0 MiB (0%)
Language : Polish
Default : No
Forced : No

Text #28
ID : 32
Format : PGS
Codec ID : S_HDMV/PGS
Codec ID/Info : Picture based subtitle format used on BDs/HD-DVDs
Duration : 2 h 48 min
Bit rate : 20.7 kb/s
Count of elements : 2024
Stream size : 25.0 MiB (0%)
Title : Brazilian
Language : Portuguese
Default : No
Forced : No

Text #29
ID : 33
Format : PGS
Codec ID : S_HDMV/PGS
Codec ID/Info : Picture based subtitle format used on BDs/HD-DVDs
Duration : 2 h 48 min
Bit rate : 20.9 kb/s
Count of elements : 2024
Stream size : 25.3 MiB (0%)
Title : Iberian
Language : Portuguese
Default : No
Forced : No

Text #30
ID : 34
Format : PGS
Codec ID : S_HDMV/PGS
Codec ID/Info : Picture based subtitle format used on BDs/HD-DVDs
Duration : 2 h 49 min
Bit rate : 15.5 kb/s
Count of elements : 2024
Stream size : 18.8 MiB (0%)
Language : Romanian
Default : No
Forced : No

Text #31
ID : 35
Format : PGS
Codec ID : S_HDMV/PGS
Codec ID/Info : Picture based subtitle format used on BDs/HD-DVDs
Duration : 2 h 48 min
Bit rate : 20.6 kb/s
Count of elements : 2026
Stream size : 24.9 MiB (0%)
Language : Russian
Default : No
Forced : No

Text #32
ID : 36
Format : PGS
Codec ID : S_HDMV/PGS
Codec ID/Info : Picture based subtitle format used on BDs/HD-DVDs
Duration : 2 h 49 min
Bit rate : 18.4 kb/s
Count of elements : 2024
Stream size : 22.4 MiB (0%)
Language : Slovenian
Default : No
Forced : No

Text #33
ID : 37
Format : PGS
Codec ID : S_HDMV/PGS
Codec ID/Info : Picture based subtitle format used on BDs/HD-DVDs
Duration : 2 h 48 min
Bit rate : 21.4 kb/s
Count of elements : 2024
Stream size : 25.8 MiB (0%)
Title : Castilian
Language : Spanish
Default : No
Forced : No

Text #34
ID : 38
Format : PGS
Codec ID : S_HDMV/PGS
Codec ID/Info : Picture based subtitle format used on BDs/HD-DVDs
Duration : 2 h 49 min
Bit rate : 18.0 kb/s
Count of elements : 2600
Stream size : 21.9 MiB (0%)
Title : Latin American
Language : Spanish
Default : No
Forced : No

Text #35
ID : 39
Format : PGS
Codec ID : S_HDMV/PGS
Codec ID/Info : Picture based subtitle format used on BDs/HD-DVDs
Duration : 2 h 56 min
Bit rate : 16.4 kb/s
Count of elements : 2243
Stream size : 20.6 MiB (0%)
Language : Swedish
Default : No
Forced : No

Text #36
ID : 40
Format : PGS
Codec ID : S_HDMV/PGS
Codec ID/Info : Picture based subtitle format used on BDs/HD-DVDs
Duration : 2 h 48 min
Bit rate : 15.7 kb/s
Count of elements : 2028
Stream size : 18.9 MiB (0%)
Language : Thai
Default : No
Forced : No

Text #37
ID : 41
Format : PGS
Codec ID : S_HDMV/PGS
Codec ID/Info : Picture based subtitle format used on BDs/HD-DVDs
Duration : 2 h 48 min
Bit rate : 23.0 kb/s
Count of elements : 2410
Stream size : 27.8 MiB (0%)
Language : Turkish
Default : No
Forced : No

Text #38
ID : 42
Format : PGS
Codec ID : S_HDMV/PGS
Codec ID/Info : Picture based subtitle format used on BDs/HD-DVDs
Duration : 2 h 49 min
Bit rate : 27.7 kb/s
Count of elements : 2682
Stream size : 33.6 MiB (0%)
Title : Commentary by director/actor Mel Gibson
Language : English
Default : No
Forced : No

Text #39
ID : 43
Format : PGS
Codec ID : S_HDMV/PGS
Codec ID/Info : Picture based subtitle format used on BDs/HD-DVDs
Duration : 2 h 56 min
Bit rate : 26.3 kb/s
Count of elements : 1996
Stream size : 33.2 MiB (0%)
Title : Commentary by director/actor Mel Gibson
Language : Danish
Default : No
Forced : No

Text #40
ID : 44
Format : PGS
Codec ID : S_HDMV/PGS
Codec ID/Info : Picture based subtitle format used on BDs/HD-DVDs
Duration : 2 h 56 min
Bit rate : 25.6 kb/s
Count of elements : 1920
Stream size : 32.3 MiB (0%)
Title : Commentary by director/actor Mel Gibson
Language : Dutch
Default : No
Forced : No

Text #41
ID : 45
Format : PGS
Codec ID : S_HDMV/PGS
Codec ID/Info : Picture based subtitle format used on BDs/HD-DVDs
Duration : 2 h 56 min
Bit rate : 27.9 kb/s
Count of elements : 1998
Stream size : 35.3 MiB (0%)
Title : Commentary by director/actor Mel Gibson
Language : Finnish
Default : No
Forced : No

Text #42
ID : 46
Format : PGS
Codec ID : S_HDMV/PGS
Codec ID/Info : Picture based subtitle format used on BDs/HD-DVDs
Duration : 2 h 49 min
Bit rate : 23.8 kb/s
Count of elements : 2682
Stream size : 28.9 MiB (0%)
Title : Commentary by director/actor Mel Gibson (Canadian)
Language : French
Default : No
Forced : No

Text #43
ID : 47
Format : PGS
Codec ID : S_HDMV/PGS
Codec ID/Info : Picture based subtitle format used on BDs/HD-DVDs
Duration : 2 h 56 min
Bit rate : 27.0 kb/s
Count of elements : 2216
Stream size : 34.1 MiB (0%)
Title : Commentary by director/actor Mel Gibson (Parisian)
Language : French
Default : No
Forced : No

Text #44
ID : 48
Format : PGS
Codec ID : S_HDMV/PGS
Codec ID/Info : Picture based subtitle format used on BDs/HD-DVDs
Duration : 2 h 56 min
Bit rate : 28.3 kb/s
Count of elements : 1998
Stream size : 35.8 MiB (0%)
Title : Commentary by director/actor Mel Gibson
Language : German
Default : No
Forced : No

Text #45
ID : 49
Format : PGS
Codec ID : S_HDMV/PGS
Codec ID/Info : Picture based subtitle format used on BDs/HD-DVDs
Duration : 2 h 56 min
Bit rate : 26.6 kb/s
Count of elements : 2000
Stream size : 33.7 MiB (0%)
Title : Commentary by director/actor Mel Gibson
Language : Italian
Default : No
Forced : No

Text #46
ID : 50
Format : PGS
Codec ID : S_HDMV/PGS
Codec ID/Info : Picture based subtitle format used on BDs/HD-DVDs
Duration : 2 h 49 min
Bit rate : 15.1 kb/s
Count of elements : 1856
Stream size : 18.3 MiB (0%)
Title : Commentary by director/actor Mel Gibson
Language : Japanese
Default : No
Forced : No

Text #47
ID : 51
Format : PGS
Codec ID : S_HDMV/PGS
Codec ID/Info : Picture based subtitle format used on BDs/HD-DVDs
Duration : 2 h 49 min
Bit rate : 24.4 kb/s
Count of elements : 1998
Stream size : 29.7 MiB (0%)
Title : Commentary by director/actor Mel Gibson
Language : Korean
Default : No
Forced : No

Text #48
ID : 52
Format : PGS
Codec ID : S_HDMV/PGS
Codec ID/Info : Picture based subtitle format used on BDs/HD-DVDs
Duration : 2 h 49 min
Bit rate : 26.2 kb/s
Count of elements : 1998
Stream size : 31.8 MiB (0%)
Title : Commentary by director/actor Mel Gibson
Language : Norwegian
Default : No
Forced : No

Text #49
ID : 53
Format : PGS
Codec ID : S_HDMV/PGS
Codec ID/Info : Picture based subtitle format used on BDs/HD-DVDs
Duration : 2 h 49 min
Bit rate : 28.0 kb/s
Count of elements : 1998
Stream size : 33.9 MiB (0%)
Title : Commentary by director/actor Mel Gibson
Language : Russian
Default : No
Forced : No

Text #50
ID : 54
Format : PGS
Codec ID : S_HDMV/PGS
Codec ID/Info : Picture based subtitle format used on BDs/HD-DVDs
Duration : 2 h 56 min
Bit rate : 27.3 kb/s
Count of elements : 2000
Stream size : 34.6 MiB (0%)
Title : Commentary by director/actor Mel Gibson (Castilian)
Language : Spanish
Default : No
Forced : No

Text #51
ID : 55
Format : PGS
Codec ID : S_HDMV/PGS
Codec ID/Info : Picture based subtitle format used on BDs/HD-DVDs
Duration : 2 h 49 min
Bit rate : 25.9 kb/s
Count of elements : 2682
Stream size : 31.5 MiB (0%)
Title : Commentary by director/actor Mel Gibson (Latin American)
Language : Spanish
Default : No
Forced : No

Text #52
ID : 56
Format : PGS
Codec ID : S_HDMV/PGS
Codec ID/Info : Picture based subtitle format used on BDs/HD-DVDs
Duration : 2 h 56 min
Bit rate : 16.1 kb/s
Count of elements : 1774
Stream size : 20.3 MiB (0%)
Title : Commentary by director/actor Mel Gibson
Language : Swedish
Default : No
Forced : No

Menu
00:00:00.000 : en:The Wits of Men
00:07:25.528 : en:Courage and a Free Heart
00:16:24.442 : en:The Trouble with Scotland
00:22:00.694 : en:A Nobleman's Rights
00:34:16.888 : en:No Other, Forever
00:39:49.679 : en:Application and Consequences of Laws
00:56:04.987 : en:Gathering to Rebel
01:00:01.264 : en:Ruthless Compromise
01:07:28.044 : en:Madmen and Spies
01:11:51.933 : en:Are You Ready for War
01:19:01.528 : en:Terms and Offers
01:33:03.203 : en:Guardian of Scotland
01:43:44.718 : en:Negotiating with a Princess
01:53:55.454 : en:Unity and Betrayal
01:58:58.465 : en:Lands of Death
02:17:15.477 : en:To Capture a Legend
02:24:18.900 : en:The Pledge of the Bruce
02:28:49.796 : en:The Crown's Price
02:34:12.410 : en:A Queens Plea for Mercy
02:36:32.091 : en:Freedom!
02:46:53.879 : en:Bleed with Me
02:50:43.066 : en:Credits


Screenshots

Braveheart (1995) [4K, Ultra HD]

Braveheart (1995) [4K, Ultra HD]

Braveheart (1995) [4K, Ultra HD]

Braveheart (1995) [4K, Ultra HD]


Come Visit My Blog (•‿•)