Cat's Eye (1985)

Posted By: Tavaz
1080p (FullHD) / BDRip IMDb
Cat's Eye (1985)

Cat's Eye (1985)
BDRip | MKV | 1920x800 | English | H265 @ 2939 kbps | AC-3 @ 128 kbps | 1 h 34 min | 2.03 GiB
Subtitles: English
Genre: Comedy, Horror, Thriller

Three short stories by shock-meister Stephen King are linked by a stray cat that roams from one tale to the next in this creepy triptych that begins as Dick (James Woods) tries to quit smoking by any means necessary. Next, we meet Johnny, an adulterous man who's forced by his lover's husband onto a building's hazardous ledge. Finally, Amanda is threatened by an evil gnome who throws suspicion on the family cat.

88f41c3d61654ceead6a9de0b25c87e0.mkv (2.0 GB)



General
Unique ID : 194601359230073193325132730204697545390 (0x9266DBC6643FBAE69BAE10406F8A4AAE)
Complete name : ./88f41c3d61654ceead6a9de0b25c87e0.mkv
Format : Matroska
Format version : Version 2
File size : 2.03 GiB
Duration : 1 h 34 min
Overall bit rate : 3 076 kb/s
Movie name : Cats Eye 1985 BluRay 10Bit 1080p DD5.1 H265-d3g
Encoded date : UTC 2018-01-09 21:26:07
Writing application : DVDFab 10.0.6.6
Writing library : libebml v1.3.4 + libmatroska v1.4.5

Video
ID : 1
Format : HEVC
Format/Info : High Efficiency Video Coding
Format profile : Main 10@L4@High
Codec ID : V_MPEGH/ISO/HEVC
Duration : 1 h 34 min
Bit rate : 2 939 kb/s
Width : 1 920 pixels
Height : 800 pixels
Display aspect ratio : 2.40:1
Frame rate mode : Constant
Frame rate : 23.976 (24000/1001) FPS
Color space : YUV
Chroma subsampling : 4:2:0
Bit depth : 10 bits
Bits/(Pixel*Frame) : 0.080
Stream size : 1.94 GiB (96%)
Default : Yes
Forced : No
Color range : Limited
Color primaries : BT.709
Transfer characteristics : BT.709
Matrix coefficients : BT.709

Audio
ID : 2
Format : AC-3
Format/Info : Audio Coding 3
Format settings, Endianness : Big
Codec ID : A_AC3
Duration : 1 h 34 min
Bit rate mode : Constant
Bit rate : 128 kb/s
Channel(s) : 2 channels
Channel positions : Front: L R
Sampling rate : 48.0 kHz
Frame rate : 31.250 FPS (1536 SPF)
Bit depth : 16 bits
Compression mode : Lossy
Stream size : 86.4 MiB (4%)
Language : English
Service kind : Complete Main
Default : Yes
Forced : No

Text
ID : 3
Format : VobSub
Codec ID : S_VOBSUB
Codec ID/Info : Picture based subtitle format used on DVDs
Duration : 1 h 33 min
Bit rate : 7 513 b/s
Count of elements : 1107
Stream size : 5.01 MiB (0%)
Language : English
Default : Yes
Forced : No

Menu
00:00:00.000 : en:The King Menagerie
00:03:13.944 : en:Quitters Inc.
00:07:28.490 : en:Helluva Problem
00:10:12.862 : en:The Cat Room
00:12:23.409 : en:For His Family
00:14:48.638 : en:Closet Case
00:18:34.780 : en:We're Watching
00:23:02.172 : en:Smoking Nightmare
00:25:40.080 : en:A Little Slip
00:29:36.274 : en:Shock Treatment
00:32:27.195 : en:A Toast
00:35:01.516 : en:Tabby-ulating the Odds
00:39:50.597 : en:The Setup
00:43:45.248 : en:Ledging Their Bet
00:47:22.547 : en:On Your Toes
00:50:48.921 : en:Fellow Pigeons
00:53:40.259 : en:High Wire Hanger
00:56:24.548 : en:Joke in Reverse
01:00:58.113 : en:Amanda's New Cat
01:04:02.380 : en:Cate Tales
01:06:51.049 : en:Monster Tale
01:09:52.814 : en:Night Visitor
01:14:51.112 : en:Cat in a Box
01:17:55.838 : en:He Knows
01:20:35.205 : en:Homeward Bound
01:23:02.895 : en:Get 'em General
01:27:07.722 : en:Two Big Fans
01:31:38.493 : en:End Credits





Cat's Eye (1985)


Cat's Eye (1985)


Cat's Eye (1985)


Cat's Eye (1985)


Cat's Eye (1985)