Chaos (2005)

Posted By: Tavaz
1080p (FullHD) / BDRip IMDb
Chaos (2005)

Chaos (2005)
BDRip | MKV | 1920x814 | English / English | H264 @ 11056 kbps | DTS @ 1509 kbps | 1 h 46 min | 9.40 GiB
Subtitles: Bulgarian, English
Genre: Action, Crime, Drama

Two cops, a rookie and a grizzled vet, pursue an accomplished bank robber.

Chaos.2005.1080p.BluRay.DTS.x264-HiDt.mkv (9.4 GB)



General
Unique ID : 220915363591192183436102118123460322039 (0xA632C05B32492D8FBCA15ECABCAB62F7)
Complete name : ./Chaos.2005.1080p.BluRay.DTS.x264-HiDt.mkv
Format : Matroska
Format version : Version 1
File size : 9.40 GiB
Duration : 1 h 46 min
Overall bit rate mode : Variable
Overall bit rate : 12.6 Mb/s
Encoded date : UTC 2009-08-18 14:43:49
Writing application : mkvmerge v2.2.0 ('Turn It On Again') built on Mar 4 2008 12:58:26
Writing library : libebml v0.7.7 + libmatroska v0.8.1

Video
ID : 1
Format : AVC
Format/Info : Advanced Video Codec
Format profile : High@L4.1
Format settings : CABAC / 4 Ref Frames
Format settings, CABAC : Yes
Format settings, RefFrames : 4 frames
Codec ID : V_MPEG4/ISO/AVC
Duration : 1 h 46 min
Bit rate : 11.1 Mb/s
Width : 1 920 pixels
Height : 814 pixels
Display aspect ratio : 2.35:1
Frame rate mode : Constant
Frame rate : 23.976 FPS
Color space : YUV
Chroma subsampling : 4:2:0
Bit depth : 8 bits
Scan type : Progressive
Bits/(Pixel*Frame) : 0.295
Stream size : 8.03 GiB (85%)
Title : x264
Writing library : x264 core 68 r1183M f21daff
Encoding settings : cabac=1 / ref=4 / deblock=1:-3:-3 / analyse=0x3:0x113 / me=umh / subme=9 / psy_rd=1.0:0.0 / mixed_ref=1 / me_range=32 / chroma_me=1 / trellis=2 / 8x8dct=1 / cqm=0 / deadzone=21,11 / chroma_qp_offset=-2 / threads=6 / nr=0 / decimate=1 / mbaff=0 / bframes=5 / b_pyramid=1 / b_adapt=2 / b_bias=0 / direct=3 / wpredb=1 / keyint=250 / keyint_min=25 / scenecut=40 / rc=2pass / bitrate=11056 / ratetol=1.0 / qcomp=0.60 / qpmin=10 / qpmax=51 / qpstep=4 / cplxblur=20.0 / qblur=0.5 / ip_ratio=1.40 / pb_ratio=1.30 / aq=1:0.80
Language : English
Default : Yes
Forced : No

Audio #1
ID : 2
Format : DTS
Format/Info : Digital Theater Systems
Mode : 16
Format settings, Endianness : Big
Codec ID : A_DTS
Duration : 1 h 46 min
Bit rate mode : Constant
Bit rate : 1 509 kb/s
Channel(s) : 6 channels
Channel positions : Front: L C R, Side: L R, LFE
Sampling rate : 48.0 kHz
Frame rate : 93.750 FPS (512 SPF)
Bit depth : 24 bits
Compression mode : Lossy
Stream size : 1.13 GiB (12%)
Title : DTS 5.1
Language : English
Default : Yes
Forced : No

Audio #2
ID : 3
Format : Vorbis
Format settings, Floor : 1
Codec ID : A_VORBIS
Duration : 1 h 46 min
Bit rate mode : Variable
Bit rate : 80.0 kb/s
Channel(s) : 2 channels
Sampling rate : 48.0 kHz
Compression mode : Lossy
Stream size : 61.1 MiB (1%)
Title : Commentary
Writing library : aoTuV b5c (UTC 2008-12-15)
Language : English
Default : No
Forced : No

Text #1
ID : 4
Format : ASS
Codec ID : S_TEXT/ASS
Codec ID/Info : Advanced Sub Station Alpha
Compression mode : Lossless
Language : English
Default : Yes
Forced : No

Text #2
ID : 5
Format : ASS
Codec ID : S_TEXT/ASS
Codec ID/Info : Advanced Sub Station Alpha
Compression mode : Lossless
Language : Bulgarian
Default : No
Forced : No





Chaos (2005)


Chaos (2005)


Chaos (2005)


Chaos (2005)


Chaos (2005)